Поездка к морю (Нина Бисярина) [2008, Мультфильм, DVDRip]

Ответить на тему
 
Автор Сообщение

user ®

Стаж: 7 лет 7 месяцев

Сообщений: 20008

Пост Пост: #1 от 05-Фев-2014 12:50

[Цитировать]

Поездка к морю
Страна: Россия
Жанр: Мультфильм
Продолжительность: 00:07:00
Год выпуска: 2008
Перевод: Не требуется
Режиссёр: Нина Бисярина
Описание: Три дня в поезде по дороге к мечте. Девочка отправляется с бабушкой из дождливого города к морю, которое лучезарно сияет с цветной открытки, — поэтичная история складывается из самых обыкновенных вещей. Дрожат стаканы в подстаканниках, трепещут занавески в коридоре, мелькают за окном столбы и плюшевые игрушки станционных торговцев — и оживают фантазии о близкой мечте: плещутся на столике золотые рыбки, а светящиеся многоэтажки за окном превращаются в огромный теплоход, плывущий по темным волнам. И ничего, что море в конце путешествия оказывается дождливым, как пункт отправления, — зато оно настоящее.
Качество: DVDRip
Формат: AVI
Видео: XviD, 1900 Кбит/с, 720x400 (16:9), 25 кадр/с
Аудио: Dolby AC3 48000 Гц, 2 канала (Стерео), 192 Кбит/с

Автор рипа - ivandubskoj

Награды

- 15 августа 2010 года в Выборге XVIII фестиваль Российского кино «Окно в Европу»
Приз за лучший анимационный фильм
- 11 мая 2010 года в немецком Штутгарте 17-й Международный анимационный фестиваль.
Спец-упоминания жюри основного конкурса. Жюри особо отметило "интимность и нежность" данной работы
- XVI Международного фестиваля анимационных фильмов «Крок-2009»
Приз в категории «Фильмы продолжительностью 5-10 минут»
- 15-й Открытый Российский фестиваль в Суздале - 2010
Приз за лучшую режиссуру, 3 место по зрительском рейтингу

MediaInfo

General
Complete name : Poezdka.k.moryou.2008.DVDRip.avi
Format : AVI
Format/Info : Audio Video Interleave
File size : 105 MiB
Duration : 7mn 0s
Overall bit rate : 2 100 Kbps
Movie name : Поездка к морю (2008) DVDRip
Recorded date : 05.02.2014
Writing application : VirtualDubMod 1.5.10.3 (build 2550/release)
Writing library : VirtualDubMod build 2550/release
Copyright : rip by ivandubskoj
Video
ID : 0
Format : MPEG-4 Visual
Format profile : Advanced Simple@L5
Format settings, BVOP : 1
Format settings, QPel : No
Format settings, GMC : No warppoints
Format settings, Matrix : Default (MPEG)
Codec ID : XVID
Codec ID/Hint : XviD
Duration : 7mn 0s
Bit rate : 1 900 Kbps
Width : 720 pixels
Height : 400 pixels
Display aspect ratio : 16:9
Frame rate : 25.000 fps
Color space : YUV
Chroma subsampling : 4:2:0
Bit depth : 8 bits
Scan type : Progressive
Compression mode : Lossy
Bits/(Pixel*Frame) : 0.264
Stream size : 95.1 MiB (90%)
Writing library : XviD 73
Audio
ID : 1
Format : AC-3
Format/Info : Audio Coding 3
Mode extension : CM (complete main)
Codec ID : 2000
Duration : 7mn 0s
Bit rate mode : Constant
Bit rate : 192 Kbps
Channel(s) : 2 channels
Channel positions : Front: L R
Sampling rate : 48.0 KHz
Bit depth : 16 bits
Compression mode : Lossy
Stream size : 9.61 MiB (9%)
Alignment : Split accross interleaves
Interleave, duration : 64 ms (1.60 video frames)
Interleave, preload duration : 500 ms
Title : Russian

Скриншоты

ВНИМАНИЕ! 05.02.2014 - РАЗДАЧА ПЕРЕЗАЛИТА. СДЕЛАЛ БОЛЕЕ КАЧЕСТВЕННЫЙ РИП. КАЧАЙТЕ!
Скачать

Скачать торрент!

Как скачивать? · Что такое торрент? · Рейтинг и ограничения

Сайт не распространяет и не хранит электронные версии произведений, а лишь предоставляет доступ к создаваемому пользователями каталогу ссылок на торрент-файлы, которые содержат только списки хеш-сумм

[Профиль] [ЛС]
Показать сообщения:    
Ответить на тему

Текущее время: Сегодня 00:23

Часовой пояс: GMT + 4



Вы не можете начинать темы
Вы не можете отвечать на сообщения
Вы не можете редактировать свои сообщения
Вы не можете удалять свои сообщения
Вы не можете голосовать в опросах
Вы не можете прикреплять файлы к сообщениям
Вы не можете скачивать файлы