Здрасьте, приехали! (Виталий Шепелев) [2012, комедия, семейный, HDRip]

Ответить на тему
 
Автор Сообщение

user ®

Стаж: 7 лет 7 месяцев

Сообщений: 20008

Пост Пост: #1 от 05-Фев-2014 06:30

[Цитировать]

Здрасьте, приехали!
Жанр: комедия, семейный
Год выпуска: 2012
Продолжительность: 01:35:00
Режиссёр: Виталий Шепелев
В ролях: Валентин Стрыкало, Евгений Сытый, Артем Казьмин, Юлия Сулес, Сергей Степин, Теймураз Тания, Михаил Попов, Анна Ичетовкина, Лариса Вербицкая
Описание: Борис один из тех, кто за словом в карман не полезет, потому что все равно ничего там не найдет. Неловкий и провинциальный, со своим взглядом на жизнь и мнение свое, конечно, имеет обо всем. И с этим мнением и с сыном своим едет в Москву. На выходной — в цирк. Только это сюрприз. Для сына. Для него самого тоже сюрприз находится — торшер. В цирк они, как-раз из-за него и не попадают. А попадают в такие переделки, что Москва сама оказывается для них одним большим цирком. С такими фокусами и кордебалетом, что только держись! За торшер. И желательно покрепче. А то — раз — и, здрасьте, приехали. Это ж не хухры-мухры. Это Москва.
Доп. информация: рип с исходника, предоставленного авторами фильма
КИНОПОИСК
Сэмпл: http://yadi.sk/d/SY50K5XBHL4NZ
Качество видео: HDRip
Формат видео: AVI
Видео: 720x304 (2.37:1), 24.000 fps, XviD build 50 ~2001 kbps avg, 0.38 bit/pixel
Аудио: 48 kHz, AC3 Dolby Digital, 2/0 (L,R) ch, ~192 kbps

MediaInfo

General
Complete name : F:\ -= Фильмы =-\+ Авторские\Здрасьте, приехали! (2012).avi
Format : AVI
Format/Info : Audio Video Interleave
File size : 1.46 GiB
Duration : 1h 35mn
Overall bit rate : 2 203 Kbps
Writing application : VirtualDubMod 1.5.10.2 (build 2540/release)
Writing library : VirtualDubMod build 2540/release
Video
ID : 0
Format : MPEG-4 Visual
Format profile : Advanced Simple@L5
Format settings, BVOP : 1
Format settings, QPel : No
Format settings, GMC : No warppoints
Format settings, Matrix : Default (MPEG)
Codec ID : XVID
Codec ID/Hint : XviD
Duration : 1h 35mn
Bit rate : 2 001 Kbps
Width : 720 pixels
Height : 304 pixels
Display aspect ratio : 2.35:1
Frame rate : 24.000 fps
Color space : YUV
Chroma subsampling : 4:2:0
Bit depth : 8 bits
Scan type : Progressive
Compression mode : Lossy
Bits/(Pixel*Frame) : 0.381
Stream size : 1.33 GiB (91%)
Writing library : XviD 1.2.1 (UTC 2008-12-04)
Audio
ID : 1
Format : AC-3
Format/Info : Audio Coding 3
Mode extension : CM (complete main)
Format settings, Endianness : Big
Codec ID : 2000
Duration : 1h 35mn
Bit rate mode : Constant
Bit rate : 192 Kbps
Channel(s) : 2 channels
Channel positions : Front: L R
Sampling rate : 48.0 KHz
Bit depth : 16 bits
Compression mode : Lossy
Stream size : 130 MiB (9%)
Alignment : Split accross interleaves
Interleave, duration : 42 ms (1.00 video frame)
Interleave, preload duration : 500 ms

Скриншоты

Скачать

Скачать торрент!

Как скачивать? · Что такое торрент? · Рейтинг и ограничения

Сайт не распространяет и не хранит электронные версии произведений, а лишь предоставляет доступ к создаваемому пользователями каталогу ссылок на торрент-файлы, которые содержат только списки хеш-сумм

[Профиль] [ЛС]
Показать сообщения:    
Ответить на тему

Текущее время: Сегодня 14:15

Часовой пояс: GMT + 4



Вы не можете начинать темы
Вы не можете отвечать на сообщения
Вы не можете редактировать свои сообщения
Вы не можете удалять свои сообщения
Вы не можете голосовать в опросах
Вы не можете прикреплять файлы к сообщениям
Вы не можете скачивать файлы