Ёлки 3 (Ольга Харина, Дмитрий Киселёв, Александр Котт) [2013, Комедия, BDRip]

Ответить на тему
 
Автор Сообщение

user ®

Стаж: 7 лет 7 месяцев

Сообщений: 20008

Пост Пост: #1 от 05-Фев-2014 01:00

[Цитировать]

Ёлки 3
Жанр: Комедия, драма, приключения, семейный
Год выпуска: 2013
Продолжительность: 01:36:50
Режиссёр: Ольга Харина, Дмитрий Киселёв, Александр Котт
В ролях: Иван Ургант, Сергей Светлаков, Гоша Куценко, Валентин Гафт, Татьяна Догилева, Пётр Фёдоров, Анна Чиповская, Мария Шукшина, Константин Хабенский, Антон Богданов
Описание: Спустя два года они снова с нами: любимые герои «Ёлок» в самых невероятных новогодних историях. Боря и Женя, чьи годовалые дети в канун праздника доведут друзей до психушки. Маленькая девочка Настя, чьи родители разлучат её, влюбленных друг в друга, собак. Лыжник и сноубордист в самой экстремальной в их жизни гонке - от военкома. И профессор из Екатеринбурга Андрей, чья любвеобильность вновь не доведёт его до добра, а только до проруби в минус 30. Под бой курантов этих и новых героев «Ёлок» объединит бумеранг добра. Завершая свой круг, он заслуженно вернётся к каждому, кто его однажды запустил - кому улыбками и объятиями любимых и друзей, кому = праздничным настроением и соответствующим градусу состоянием, а кому-то… телефоном в холодце!

Качество видео: BDRip (Исходник: Blu-Ray Remux (1080p) от HDClub)
Формат видео: AVI
Видео: XviD, 1717 Кбит/с, 720х304, 24 кадр/с
Аудио: Русский, Dolby AC3, 48000 Гц, 448 Кбит/с, 6 каналов (5.1)
Автор рипа - ivandubskoj

MediaInfo

General
Complete name : Jolki.2013.BDRip.avi
Format : AVI
Format/Info : Audio Video Interleave
File size : 1.46 GiB
Duration : 1h 36mn
Overall bit rate : 2 173 Kbps
Movie name : Ёлки 3 (2013) BDRip
Recorded date : 04.02.2014
Writing application : VirtualDubMod 1.5.10.3 (build 2550/release)
Writing library : VirtualDubMod build 2550/release
Copyright : rip by ivandubskoj
Video
ID : 0
Format : MPEG-4 Visual
Format profile : Advanced Simple@L5
Format settings, BVOP : 2
Format settings, QPel : No
Format settings, GMC : No warppoints
Format settings, Matrix : Custom
Codec ID : XVID
Codec ID/Hint : XviD
Duration : 1h 36mn
Bit rate : 1 717 Kbps
Width : 720 pixels
Height : 304 pixels
Display aspect ratio : 2.35:1
Frame rate : 24.000 fps
Color space : YUV
Chroma subsampling : 4:2:0
Bit depth : 8 bits
Scan type : Progressive
Compression mode : Lossy
Bits/(Pixel*Frame) : 0.324
Stream size : 1.15 GiB (79%)
Writing library : XviD 73
Audio
ID : 1
Format : AC-3
Format/Info : Audio Coding 3
Mode extension : CM (complete main)
Codec ID : 2000
Duration : 1h 36mn
Bit rate mode : Constant
Bit rate : 448 Kbps
Channel(s) : 6 channels
Channel positions : Front: L C R, Side: L R, LFE
Sampling rate : 48.0 KHz
Bit depth : 16 bits
Compression mode : Lossy
Stream size : 310 MiB (21%)
Alignment : Split accross interleaves
Interleave, duration : 64 ms (1.54 video frames)
Interleave, preload duration : 500 ms
Title : Russian

Скриншот c названием фильма

Скриншоты

Скачать

Скачать торрент!

Как скачивать? · Что такое торрент? · Рейтинг и ограничения

Сайт не распространяет и не хранит электронные версии произведений, а лишь предоставляет доступ к создаваемому пользователями каталогу ссылок на торрент-файлы, которые содержат только списки хеш-сумм

[Профиль] [ЛС]
Показать сообщения:    
Ответить на тему

Текущее время: Сегодня 15:54

Часовой пояс: GMT + 4



Вы не можете начинать темы
Вы не можете отвечать на сообщения
Вы не можете редактировать свои сообщения
Вы не можете удалять свои сообщения
Вы не можете голосовать в опросах
Вы не можете прикреплять файлы к сообщениям
Вы не можете скачивать файлы