Семейка вампиров / Die Vampirschwestern (Вольфганг Гроос / Wolfgang Groos) [2012, Германия, фэнтези, драма, комедия, HDRip,Профессиональный [Дубляж - Лицензия]

Ответить на тему
 
Автор Сообщение

LORN-V ®

Пол:

Стаж: 4 года 6 месяцев

Сообщений: 1186

Откуда: Munchen

Пост Пост: #1 от 04-Фев-2014 22:39

[Цитировать]


Семейка вампиров / Die Vampirschwestern
-Основная информация:
Год выпуска: 2012
Страна: Германия
Жанр: фэнтези, драма, комедия, приключения, семейный
Продолжительность: 01:37:32
Перевод: Профессиональный [Дубляж - Лицензия]
Режиссер: Вольфганг Гроос / Wolfgang Groos-В ролях:
Марта Мартин (Silvania Tepes), Кристиана Пауль (Elvira Tepes), Стипе Эрцег (Mihai Tepes), Михаэль Кесслер (Dirk van Kombast), Рихи Мюллер (Ali Bin Schick), Джэйми Бик (Helene SteinbrГјck), Йонас Холденриедер (Ludo Schwarzer), Йеремиас Мейер (Jacob Barton), Май Яблонски (Missy Master), Робин Кирш (Killa K), Ксавер Веглер (BH), Виола фон Дер Бёрг (Frau Renneberg)-Описание:
В один прекрасный солнечный день, в самый обыкновенный городок, приезжает самая необыкновенная семья... Папа, мама и сестры - Дакария и Сильвения... семья вампиров! Девочкам придется привыкать к обычной жизни людей - ходить в школу, носить темные очки, использовать крем от загара... И, главное, они должны быть предельно осторожны, чтобы не выдать свою тайну...- -Доп. информация:
Качество: HDRip
Формат: AVI
Видео кодек: XviD
Аудио кодек: AC3
Видео: XviD, 720x384 (1.875), 1684 kbps, 23,976 fps, 0,254 bpp
Аудио: AC3 / 5.1 / 48 kHz / 448 kbps / 16 bit

MI

Общее
Полное имя                               : D:\Torrent_DviX\Semejka.vampirov.2012.D.HDRip.avi
Формат                                   : AVI
Формат/Информация                        : Audio Video Interleave
Размер файла                             : 1,46 Гбайт
Продолжительность                        : 1 ч. 37 м.
Общий поток                              : 2142 Кбит/сек
Программа кодирования                    : VirtualDubMod 1.5.10.2 (build 2540/release)
Библиотека кодирования                   : VirtualDubMod build 2540/release
Видео
Идентификатор                            : 0
Формат                                   : MPEG-4 Visual
Профиль формата                          : Advanced Simple@L5
Параметр BVOP формата                    : 2
Параметр QPel формата                    : Нет
Параметр GMC формата                     : Без точки перехода
Параметр матрицы формата                 : Default (MPEG)
Идентификатор кодека                     : XVID
Идентификатор кодека/Подсказка           : XviD
Продолжительность                        : 1 ч. 37 м.
Битрейт                                  : 1685 Кбит/сек
Ширина                                   : 720 пикселей
Высота                                   : 384 пикселя
Соотношение сторон                       : 1,85:1
Частота кадров                           : 23,976 кадра/сек
Цветовое пространство                    : YUV
Субдискретизация насыщенности            : 4:2:0
Битовая глубина                          : 8 бит
Тип развёртки                            : Прогрессивная
Метод сжатия                             : С потерями
Бит/(Пиксели*Кадры)                      : 0.254
Размер потока                            : 1,15 Гбайт (79%)
Библиотека кодирования                   : XviD 1.2.1 (UTC 2008-12-04)
Аудио
Идентификатор                            : 1
Формат                                   : AC-3
Формат/Информация                        : Audio Coding 3
Расширение режима                        : CM (complete main)
Параметр Endianness формата              : Big
Идентификатор кодека                     : 2000
Продолжительность                        : 1 ч. 37 м.
Вид битрейта                             : Постоянный
Битрейт                                  : 448 Кбит/сек
Каналы                                   : 6 каналов
Расположение каналов                     : Front: L C R, Side: L R, LFE
Частота                                  : 48,0 КГц
Битовая глубина                          : 16 бит
Метод сжатия                             : С потерями
Размер потока                            : 313 Мбайт (21%)
Выравнивание                             : Разделение по промежуткам
Продолжительность промежутка             : 42  мс. (1,00 видеокадр)
Время предзагрузки промежутка            : 500  мс.
-Скриншоты:
Скачать

Скачать торрент!

Как скачивать? · Что такое торрент? · Рейтинг и ограничения

Сайт не распространяет и не хранит электронные версии произведений, а лишь предоставляет доступ к создаваемому пользователями каталогу ссылок на торрент-файлы, которые содержат только списки хеш-сумм


_________________
[Профиль] [ЛС]
Показать сообщения:    
Ответить на тему

Текущее время: Сегодня 11:53

Часовой пояс: GMT + 4



Вы не можете начинать темы
Вы не можете отвечать на сообщения
Вы не можете редактировать свои сообщения
Вы не можете удалять свои сообщения
Вы не можете голосовать в опросах
Вы не можете прикреплять файлы к сообщениям
Вы не можете скачивать файлы