Наездники храма Шаолинь / Raiders of the Shaolin Temple / Raiders of Wu Tang / Shao lin nian si liu ma (Фан Хао / Fang Hao) [1983, Тайвань, боевые искусства, VHSRip] VO (Ustas Alexis)

Ответить на тему
 
Автор Сообщение

user ®

Стаж: 11 лет

Сообщений: 15151

Пост Пост: #1 от 04-Фев-2014 21:50

[Цитировать]

Наездники храма Шаолинь / Raiders of the Shaolin Temple / Raiders of Wu Tang / Shao lin nian si liu ma
Страна: Тайвань
Жанр: боевые искусства
Год выпуска: 1983
Продолжительность: 01:28:59
Перевод: Одноголосый закадровый Ustas Alexis
Cубтитры: английские, китайские
Режиссер: Фан Хао / Fang Hao
В ролях: Сонни Ю, Бай Ин, Чань Сиупан, Су Чжэнпин, Чжао Юнсинь, Вэй Пинао, Ян Сюн, Ма Чан, Хэ Вэйсюн, Ма Цзиньгу
Описание: Малыш Лу присматривает за лошадьми и мечтает овладеть техникой кунг-фу. Двое покалеченных Мастеров, выживших в легендарном тренировочном зале Храма Шаолинь, берутся обучить талантливого Лу кунг-фу. Они раскрывают перед ним тайну забытой техники 24 Бронзовых Коней. В это время на Шаолиньский монастырь нападает власть династии Чин. Только Малыш Лу, овладев техникой кунг-фу и победив всех Бронзовых Коней сможет спасти Шаолинь от верной гибели…
Благодарность: За синхронизацию озвучки спасибо Виктору Береговых, за исходник - loxaba.
Качество видео: VHSRip
Формат видео: AVI
Видео: 704x304 (2.32:1), 25 fps, XviD build 50 ~2061 kbps avg, 0.39 bit/pixel
Аудио: 48 kHz, MPEG Layer 3, 2 ch, ~128.00 kbps avg
Формат субтитров: hardsub (неотключаемые)

MediaInfo

Format : AVI
Format/Info : Audio Video Interleave
File size : 1,37 Гбайт
Duration : 1 ч. 28 м.
Overall bit rate : 2199 Кбит/сек
Writing application : VirtualDubMod 1.5.10.3 | www.virtualdub-fr.org || (build 2550/release)
Writing library : VirtualDubMod build 2550/release
Видео
ID : 0
Format : MPEG-4 Visual
Format profile : Advanced Simple@L5
Format settings, BVOP : 1
Format settings, QPel : Нет
Format settings, GMC : Без точки перехода
Format settings, Matrix : Default (MPEG)
Codec ID : XVID
Codec ID/Hint : XviD
Duration : 1 ч. 28 м.
Bit rate : 2062 Кбит/сек
Width : 704 пикселя
Height : 304 пикселя
Display aspect ratio : 2,35:1
Frame rate : 25,000 кадров/сек
Color space : YUV
Chroma subsampling : 4:2:0
Bit depth : 8 бит
Scan type : Прогрессивная
Compression mode : С потерями
Bits/(Pixel*Frame) : 0.385
Stream size : 1,28 Гбайт (94%)
Writing library : XviD 1.2.1 (UTC 2008-12-04)
Аудио
ID : 1
Format : MPEG Audio
Format version : Version 1
Format profile : Layer 3
Codec ID : 55
Codec ID/Hint : MP3
Duration : 1 ч. 28 м.
Bit rate mode : Постоянный
Bit rate : 128 Кбит/сек
Channel(s) : 2 канала
Sampling rate : 48,0 КГц
Compression mode : С потерями
Stream size : 81,5 Мбайт (6%)
Alignment : Соединение по промежуткам
Interleave, duration : 40 мс. (1,00 видеокадр)
Interleave, preload duration : 504 мс.
Writing library : LAME3.99r
Encoding settings : -m s -V 4 -q 2 -lowpass 17 -b 128

Скриншот c названием фильма

Скриншоты

Скачать

Скачать торрент! Наездники храма Шаолинь / Raiders of the Shaolin Temple / Raiders of Wu Tang / Shao lin nian si liu ma (Фан Хао / Fang Hao) [1983, Тайвань, боевые искусства, VHSRip] VO (Ustas Alexis)

Как скачивать? · Что такое торрент? · Рейтинг и ограничения

Сайт не распространяет и не хранит электронные версии произведений, а лишь предоставляет доступ к создаваемому пользователями каталогу ссылок на торрент-файлы, которые содержат только списки хеш-сумм

[Профиль] [ЛС]
Показать сообщения:    
Ответить на тему

Текущее время: Сегодня 10:56

Часовой пояс: GMT + 4



Вы не можете начинать темы
Вы не можете отвечать на сообщения
Вы не можете редактировать свои сообщения
Вы не можете удалять свои сообщения
Вы не можете голосовать в опросах
Вы не можете прикреплять файлы к сообщениям
Вы не можете скачивать файлы