Тихий американец / The Quiet American (Филлип Нойс / Phillip Noyce) [2002, Германия, США, Великобритания, Австралия, Франция, Триллер, драма, мелодрама, детектив, военный, BDRip 720p] MVO (R5) + Sub Rus, Eng + Original Eng

Ответить на тему
 
Автор Сообщение

user ®

Стаж: 7 лет 7 месяцев

Сообщений: 20008

Пост Пост: #1 от 04-Фев-2014 21:50

[Цитировать]

Тихий американец / The Quiet American«Самое сильное оружие войны - соблазн» Страна: Германия, США, Великобритания, Австралия, Франция
Студия: IMF Internationale Medien und Film GmbH & Co. 2. Produktions KG, Intermedia Films
Жанр: Триллер, драма, мелодрама, детектив, военный
Год выпуска: 2002
Продолжительность: 01:41:11
Перевод: Профессиональный (многоголосый закадровый) R5
Cубтитры: русские, английские
Оригинальная аудиодорожка: английский
Режиссер: Филлип Нойс / Phillip Noyce
В ролях: Майкл Кейн, Брендан Фрейзер, До Тхи Хай Йен, Раде Шербеджия, Ци Ма, Роберт Стэнтон, Холмс Осборн, Нгуен Хай, Фердинанд Хоанг, Пэм Тхи Мэй Хоа, Матиа Млекюз, Кевин Трэн, Лэп Фэн, Тим Беннетт, Джефф Труман, Хон Нхун, Ха Фонг Нгуен, Навия Нгуйен, Люсия Нойс, Хилари Дуглас, Дэниэл Хунг, Ким Хоан Нгуйен, Мэй Нгуйен Тринх, Фам Тронг, Трэн До Люк, Конг Ли Нгуйен, Джордж Мангос, Наташа Хантер, Мартин Монро, Хосе Де Ла Вега, Роланд Рорер, Сьюзэн Парри, Ан Дунг Нгуйен, Питер Холдсворт...
Описание: Сайгон, 1952 год. Опытный британский журналист Томас Фаулер живет в экзотическом восточном раю, найдя свое счастье в объятиях юной красавицы Фонг. Приезд молодого американца Пайла развеивает скуку Томаса, уставшего от местных политических стычек и интриг, но когда Пайл признается, что страстно любит Фонг, их дружба превращается в острое противостояние. Не желая подчиняться судьбе, Фаулер решает получше узнать Пайла и вскоре понимает, что его соперник намного опаснее, чем кажется на первый взгляд...
Релиз:


Тип релиза: BDRip 720p
Контейнер: MKV
Видео: AVC, 1280x550 at 23.976 fps, x264@L4.1, crf, ~14118 kbps avg
Аудио: Russian: 48 kHz, AC3, 3/2 (L,C,R,l,r) + LFE ch, ~640.00 kbps avg |Многоголосый закадровый, R5|
Аудио 2: English: 48 kHz, AC3, 3/2 (L,C,R,l,r) + LFE ch, ~640.00 kbps avg
Субтитры: Russian, English, English (форсированные)

Знаете ли вы, что...

• Полный вариант имеет хронометраж 118 минут.

MediaInfo

Общее
Уникальный идентификатор : 244517309710731546789894680332814106121 (0xB7F452247D654D97BB9CB864E45DBE09)
Полное имя : D:\torrent\The.Quiet.American.2002.720p.BluRay.Rus.Eng.HDCLUB.mkv
Формат : Matroska
Версия формата : Version 2
Размер файла : 10,9 Гбайт
Продолжительность : 1 ч. 42 м.
Общий поток : 15,2 Мбит/сек
Название фильма : The Quiet American (2001) - Release for HDCLUB
Дата кодирования : UTC 2013-07-13 20:06:07
Программа кодирования : mkvmerge v2.9.5 ('Tu es le seul') built on Jun 7 2009 11:07:07
Библиотека кодирования : libebml v0.7.7 + libmatroska v0.8.1
Видео
Идентификатор : 1
Формат : AVC
Формат/Информация : Advanced Video Codec
Профиль формата : High@L4.1
Параметр CABAC формата : Да
Параметр ReFrames формата : 10 кадров
Идентификатор кодека : V_MPEG4/ISO/AVC
Продолжительность : 1 ч. 42 м.
Битрейт : 13,7 Мбит/сек
Ширина : 1280 пикселей
Высота : 550 пикселей
Соотношение сторон : 2,35:1
Режим частоты кадров : Постоянный
Частота кадров : 23,976 кадра/сек
Цветовое пространство : YUV
Субдискретизация насыщенности : 4:2:0
Битовая глубина : 8 бит
Тип развёртки : Прогрессивная
Бит/(Пиксели*Кадры) : 0.809
Размер потока : 9,76 Гбайт (90%)
Заголовок : Release for HDCLUB
Библиотека кодирования : x264 core 116 r2074 2641b9e
Настройки программы : cabac=1 / ref=10 / deblock=1:-3:-3 / analyse=0x3:0x113 / me=umh / subme=10 / psy=1 / psy_rd=1.30:0.00 / mixed_ref=1 / me_range=16 / chroma_me=1 / trellis=2 / 8x8dct=1 / cqm=0 / deadzone=21,11 / fast_pskip=0 / chroma_qp_offset=-2 / threads=6 / sliced_threads=0 / nr=0 / decimate=0 / interlaced=0 / bluray_compat=0 / constrained_intra=0 / bframes=8 / b_pyramid=2 / b_adapt=2 / b_bias=0 / direct=3 / weightb=1 / open_gop=0 / weightp=2 / keyint=250 / keyint_min=23 / scenecut=40 / intra_refresh=0 / rc=crf / mbtree=0 / crf=17.5 / qcomp=0.60 / qpmin=0 / qpmax=69 / qpstep=4 / ip_ratio=1.40 / pb_ratio=1.30 / aq=1:0.50
Язык : English
Default : Да
Forced : Нет
Аудио #1
Идентификатор : 2
Формат : AC-3
Формат/Информация : Audio Coding 3
Расширение режима : CM (complete main)
Параметр Endianness формата : Big
Идентификатор кодека : A_AC3
Продолжительность : 1 ч. 42 м.
Вид битрейта : Постоянный
Битрейт : 640 Кбит/сек
Каналы : 6 каналов
Расположение каналов : Front: L C R, Side: L R, LFE
Частота : 48,0 КГц
Битовая глубина : 16 бит
Метод сжатия : С потерями
Размер потока : 469 Мбайт (4%)
Заголовок : AC3 5.1 640 Kbps [Многоголосый, R5]
Язык : Russian
Default : Да
Forced : Нет
Аудио #2
Идентификатор : 3
Формат : AC-3
Формат/Информация : Audio Coding 3
Расширение режима : CM (complete main)
Параметр Endianness формата : Big
Идентификатор кодека : A_AC3
Продолжительность : 1 ч. 42 м.
Вид битрейта : Постоянный
Битрейт : 640 Кбит/сек
Каналы : 6 каналов
Расположение каналов : Front: L C R, Side: L R, LFE
Частота : 48,0 КГц
Битовая глубина : 16 бит
Метод сжатия : С потерями
Размер потока : 469 Мбайт (4%)
Заголовок : AC3 5.1 640 Kbps [Оригинал]
Язык : English
Default : Нет
Forced : Нет
Текст #1
Идентификатор : 4
Формат : UTF-8
Идентификатор кодека : S_TEXT/UTF8
Идентификатор кодека/Информация : UTF-8 Plain Text
Язык : Russian
Default : Нет
Forced : Нет
Текст #2
Идентификатор : 5
Формат : UTF-8
Идентификатор кодека : S_TEXT/UTF8
Идентификатор кодека/Информация : UTF-8 Plain Text
Заголовок : Надписи и пр.
Язык : English
Default : Нет
Forced : Нет
Текст #3
Идентификатор : 6
Формат : UTF-8
Идентификатор кодека : S_TEXT/UTF8
Идентификатор кодека/Информация : UTF-8 Plain Text
Язык : English
Default : Нет
Forced : Нет
Меню
00:00:00.000 : en:00:00:00.000
00:06:11.441 : en:00:06:11.441
00:10:49.928 : en:00:10:49.928
00:17:40.338 : en:00:17:40.338
00:24:46.810 : en:00:24:46.810
00:27:08.280 : en:00:27:08.280
00:30:32.901 : en:00:30:32.901
00:33:51.599 : en:00:33:51.599
00:38:44.934 : en:00:38:44.934
00:43:19.750 : en:00:43:19.750
00:51:33.911 : en:00:51:33.911
00:57:04.866 : en:00:57:04.866
00:59:55.036 : en:00:59:55.036
01:04:46.161 : en:01:04:46.161
01:10:15.740 : en:01:10:15.740
01:14:30.619 : en:01:14:30.619
01:20:31.897 : en:01:20:31.897
01:32:19.145 : en:01:32:19.145

Скриншоты

Скачать

Скачать торрент!

Как скачивать? · Что такое торрент? · Рейтинг и ограничения

Сайт не распространяет и не хранит электронные версии произведений, а лишь предоставляет доступ к создаваемому пользователями каталогу ссылок на торрент-файлы, которые содержат только списки хеш-сумм

[Профиль] [ЛС]
Показать сообщения:    
Ответить на тему

Текущее время: Сегодня 13:36

Часовой пояс: GMT + 4



Вы не можете начинать темы
Вы не можете отвечать на сообщения
Вы не можете редактировать свои сообщения
Вы не можете удалять свои сообщения
Вы не можете голосовать в опросах
Вы не можете прикреплять файлы к сообщениям
Вы не можете скачивать файлы