Непобедимый / Unbeatable / MMA / Ji zhan (Данте Лам / Dante Lam) [2013, Гонконг, боевик, драма, спорт, HDRip] VO (Ворон)

Ответить на тему
 
Автор Сообщение

user ®

Стаж: 13 лет

Сообщений: 15071

Пост Пост: #1 от 04-Фев-2014 15:30

[Цитировать]

Непобедимый / Unbeatable / MMA / Ji zhan
Страна: Гонконг
Жанр: боевик, драма, спорт
Год выпуска: 2013
Продолжительность: 01:56:06
Перевод: Одноголосый закадровый - Ворон
Cубтитры: нет
Оригинальная аудиодорожка: нет-Режиссер: Данте Лам / Dante Lam-В ролях: Ник Чун, Эдди Пэн, Мэй Тин, Энди Он, Сингх Хартихан Битто-Описание: Чин Фай, в прошлом двукратный чемпион по боксу, сбегает из Гонконга в Макао от ростовщиков.
Неожиданно он встречает Линь Сыци, который полон решимости выиграть чемпионат по смешанным боевым искусствам.
Фай становится наставником Сыци и заново открывает для себя страсть не только к боям, но и к жизни.--Качество видео:HDRip
Формат видео: AVI
Видео: 720x304 (2.37:1), 24.000 fps, XviD build 64 ~1411 kbps avg, 0.27 bit/pixel
Аудио: 48 kHz, AC3 Dolby Digital, 3/2 (L,C,R,l,r) + LFE ch, ~384 kbps-Сэмпл: http://sendfile.su/934137-

MediaInfo

Format                                   : AVI
Format/Info                              : Audio Video Interleave
File size                                : 1.46 GiB
Duration                                 : 1h 56mn
Overall bit rate                         : 1 805 Kbps
Writing application                      : VirtualDubMod 1.5.10.3 | www.virtualdub-fr.org || (build 2550/release)
Writing library                          : VirtualDubMod build 2550/release
Video
ID                                       : 0
Format                                   : MPEG-4 Visual
Format profile                           : Advanced Simple@L5
Format settings, BVOP                    : 2
Format settings, QPel                    : No
Format settings, GMC                     : No warppoints
Format settings, Matrix                  : Custom
Codec ID                                 : XVID
Codec ID/Hint                            : XviD
Duration                                 : 1h 56mn
Bit rate                                 : 1 412 Kbps
Width                                    : 720 pixels
Height                                   : 304 pixels
Display aspect ratio                     : 2.35:1
Frame rate                               : 24.000 fps
Color space                              : YUV
Chroma subsampling                       : 4:2:0
Bit depth                                : 8 bits
Scan type                                : Progressive
Compression mode                         : Lossy
Bits/(Pixel*Frame)                       : 0.269
Stream size                              : 1.14 GiB (78%)
Writing library                          : XviD 64
Audio
ID                                       : 1
Format                                   : AC-3
Format/Info                              : Audio Coding 3
Mode extension                           : CM (complete main)
Codec ID                                 : 2000
Duration                                 : 1h 56mn
Bit rate mode                            : Constant
Bit rate                                 : 384 Kbps
Channel(s)                               : 6 channels
Channel positions                        : Front: L C R, Side: L R, LFE
Sampling rate                            : 48.0 KHz
Bit depth                                : 16 bits
Compression mode                         : Lossy
Stream size                              : 319 MiB (21%)
Alignment                                : Split accross interleaves
Interleave, duration                     : 42 ms (1.00 video frame)
Interleave, preload duration             : 500 ms

Скриншоты

Скачать

Скачать торрент! Непобедимый / Unbeatable / MMA / Ji zhan (Данте Лам / Dante Lam) [2013, Гонконг, боевик, драма, спорт, HDRip] VO (Ворон)

Как скачивать? · Что такое торрент? · Рейтинг и ограничения

Сайт не распространяет и не хранит электронные версии произведений, а лишь предоставляет доступ к создаваемому пользователями каталогу ссылок на торрент-файлы, которые содержат только списки хеш-сумм

[Профиль] [ЛС]
Показать сообщения:    
Ответить на тему

Текущее время: Сегодня 21:12

Часовой пояс: GMT + 4



Вы не можете начинать темы
Вы не можете отвечать на сообщения
Вы не можете редактировать свои сообщения
Вы не можете удалять свои сообщения
Вы не можете голосовать в опросах
Вы не можете прикреплять файлы к сообщениям
Вы не можете скачивать файлы