Констебль / The Constable (Деннис Лоу Сау Ю / Dennis Law Sau-Yiu) [2013, Гонконг, драма, боевик, HDRip] DVO (den904 & DeadSno)

Ответить на тему
 
Автор Сообщение

user ®

Стаж: 11 лет

Сообщений: 15151

Пост Пост: #1 от 04-Фев-2014 15:30

[Цитировать]

Констебль / The Constable
Страна: Гонконг
Жанр: драма, боевик
Год выпуска: 2013
Продолжительность: 01:40:01
Перевод: Любительский (двухголосый закадровый) den904 & DeadSno
Cубтитры: нет
Режиссер: Деннис Лоу Сау Ю / Dennis Law Sau-Yiu
В ролях: Саймон Ям, Хой-Панг Ло, Сует Лам, Мэгги Сиу, Сэм Ли
Описание: Лам Квок Куэнь полицейский со стажем, который заботится о своём больном сыне...Но его сын умирает и теперь, Куэнь может вернуться в уголовный отдел, из которого ушел 11 лет назад, чтобы вновь начать бороться с преступностью...Теперь уже, безо всяких оглядок на дом и привязанности, поскольку главный смысл его жизни утрачен.
Сэмпл: http://www.sendspace.com/file/3f7xh4
Качество видео: HDRip
Формат видео: AVI
Видео: XVID, 1790 kb/s, 720x304, 24,000 кадра/сек
Аудио: AC3, 192 kb/s (2 ch), 48,0 КГц

MediaInfo

I:\Констебль\The.Constable.L2.2013.HDRip.1400MB.avi
General
Complete name : I:\Констебль\The.Constable.L2.2013.HDRip.1400MB.avi
Format : AVI
Format/Info : Audio Video Interleave
File size : 1.39 GiB
Duration : 1h 40mn
Overall bit rate : 1 991 Kbps
Writing application : VirtualDubMod 1.5.10.3 | www.virtualdub-fr.org || (build 2550/release)
Writing library : VirtualDubMod build 2550/release
Video #0
ID : 0
Format : MPEG-4 Visual
Format profile : Advanced Simple@L5
Format settings, BVOP : 2
Format settings, QPel : No
Format settings, GMC : No warppoints
Format settings, Matrix : Custom
Codec ID : XVID
Codec ID/Hint : XviD
Duration : 1h 40mn
Bit rate : 1 790 Kbps
Width : 720 pixels
Height : 304 pixels
Display aspect ratio : 2.35:1
Frame rate : 24.000 fps
Color space : YUV
Chroma subsampling : 4:2:0
Bit depth : 8 bits
Scan type : Progressive
Compression mode : Lossy
Bits/(Pixel*Frame) : 0.341
Stream size : 1.25 GiB (90%)
Writing library : XviD 73
Audio #1
ID : 1
Format : AC-3
Format/Info : Audio Coding 3
Mode extension : CM (complete main)
Format settings, Endianness : Big
Codec ID : 2000
Duration : 1h 40mn
Bit rate mode : Constant
Bit rate : 192 Kbps
Channel count : 2 channels
Channel positions : Front: L R
Sampling rate : 48.0 KHz
Bit depth : 16 bits
Compression mode : Lossy
Stream size : 137 MiB (10%)
Alignment : Split accross interleaves
Interleave, duration : 42 ms (1.00 video frame)
Interleave, preload duration : 500 ms

Скриншот c названием фильма

Скриншоты

Скачать

Скачать торрент! Констебль / The Constable (Деннис Лоу Сау Ю / Dennis Law Sau-Yiu) [2013, Гонконг, драма, боевик, HDRip] DVO (den904 & DeadSno)

Как скачивать? · Что такое торрент? · Рейтинг и ограничения

Сайт не распространяет и не хранит электронные версии произведений, а лишь предоставляет доступ к создаваемому пользователями каталогу ссылок на торрент-файлы, которые содержат только списки хеш-сумм

[Профиль] [ЛС]
Показать сообщения:    
Ответить на тему

Текущее время: Сегодня 10:08

Часовой пояс: GMT + 4



Вы не можете начинать темы
Вы не можете отвечать на сообщения
Вы не можете редактировать свои сообщения
Вы не можете удалять свои сообщения
Вы не можете голосовать в опросах
Вы не можете прикреплять файлы к сообщениям
Вы не можете скачивать файлы