Огненная буря / Firestorm (Алан Юэнь / Alan Yuen) [2013, Гонконг, Китай, боевик, HDTVRip] DVO

Ответить на тему
 
Автор Сообщение

user ®

Стаж: 11 лет

Сообщений: 15151

Пост Пост: #1 от 04-Фев-2014 00:40

[Цитировать]

Огненная буря / Firestorm
Страна: Гонконг, Китай
Жанр: боевик
Год выпуска: 2013
Продолжительность: 01:44:36
Перевод: Профессиональный (двухголосый закадровый) Ольга Гринтиева и Константин Романов
Cубтитры: нет
Оригинальная аудиодорожка: нет
Режиссер: Алан Юэнь / Alan Yuen
В ролях: Энди Лау, Ху Цзюнь, Ка Танг Лам, Яо Чэнь и др.
Описание:
Бронированный инкассаторский автомобиль средь бела дня подвергается атаке со стороны банды преступников. Расследованием преступления занимается инспектор Луй Мин Чит, который руководит спецотрядом. Однако не так то просто схватить вооруженных до зубов головорезов, поэтому Луй решает пойти на сделку с Син Понгом, обещая освободить его из тюрьмы, если он поможет схватить своих бывших подельников. Помимо этих событий к городу приближается шторм катастрофической силы...
Релиз группа :"GREEN TEA"
Перевод с китайского: Евгений Матяш
Рип: Елена Клёпкина
Работа со звуком: Ольга Гринтиева
Сэмпл: http://multi-up.com/947145
Качество видео: HDTVRip
Формат видео: MKV
Видео: AVC;1280x544 (2.35:1);2409 Kbps;25 fps;0,138 bpp
Аудио: русский;AC3;192 Kbps;CBR;2 ch;16 bit

MediaInfo

Общее
Уникальный идентификатор : 194238013838194567645074623099118239865 (0x9220E176CBB13FA48821A6F9B84F4079)
Полное имя : G:\Download\[GREEN TEA] Огненная буря 720p.mkv
Формат : Matroska
Версия формата : Version 2
Размер файла : 1,94 Гбайт
Продолжительность : 1 ч. 44 м.
Режим общего битрейта : Переменный
Общий поток : 2654 Кбит/сек
Дата кодирования : UTC 2014-01-31 20:37:57
Программа кодирования : mkvmerge v5.4.0 ('Piper') built on Mar 10 2012 13:34:39
Библиотека кодирования : libebml v1.2.3 + libmatroska v1.3.0
Видео
Идентификатор : 1
Формат : AVC
Формат/Информация : Advanced Video Codec
Профиль формата : High@L4.1
Параметр CABAC формата : Да
Параметр ReFrames формата : 8 кадров
Идентификатор кодека : V_MPEG4/ISO/AVC
Продолжительность : 1 ч. 44 м.
Вид битрейта : Переменный
Битрейт : 2410 Кбит/сек
Номинальный битрейт : 2250 Кбит/сек
Максимальный битрейт : 40,0 Мбит/сек
Ширина : 1280 пикселей
Высота : 544 пикселя
Соотношение сторон : 2,35:1
Режим частоты кадров : Постоянный
Частота кадров : 25,000 кадров/сек
Цветовое пространство : YUV
Субдискретизация насыщенности : 4:2:0
Битовая глубина : 8 бит
Тип развёртки : Прогрессивная
Бит/(Пиксели*Кадры) : 0.138
Размер потока : 1,76 Гбайт (91%)
Заголовок : Огненная буря / Firestorm (2013) 720p
Библиотека кодирования : x264 core 130 r2273 b3065e6
Настройки программы : cabac=1 / ref=8 / deblock=1:-1:-1 / analyse=0x3:0x113 / me=umh / subme=9 / psy=1 / psy_rd=1.00:0.00 / mixed_ref=1 / me_range=32 / chroma_me=1 / trellis=1 / 8x8dct=1 / cqm=0 / deadzone=21,11 / fast_pskip=1 / chroma_qp_offset=-2 / threads=6 / lookahead_threads=1 / sliced_threads=0 / nr=0 / decimate=1 / interlaced=0 / bluray_compat=0 / constrained_intra=0 / bframes=3 / b_pyramid=2 / b_adapt=2 / b_bias=0 / direct=1 / weightb=1 / open_gop=0 / weightp=2 / keyint=25 / keyint_min=1 / scenecut=40 / intra_refresh=0 / rc_lookahead=25 / rc=2pass / mbtree=1 / bitrate=2250 / ratetol=1.0 / qcomp=0.60 / qpmin=10 / qpmax=51 / qpstep=4 / cplxblur=20.0 / qblur=0.5 / ip_ratio=1.40 / aq=1:1.0
Язык : Korean
Default : Да
Forced : Нет
Аудио
Идентификатор : 2
Формат : AC-3
Формат/Информация : Audio Coding 3
Расширение режима : CM (complete main)
Параметр Endianness формата : Big
Идентификатор кодека : A_AC3
Продолжительность : 1 ч. 44 м.
Вид битрейта : Постоянный
Битрейт : 192 Кбит/сек
Каналы : 2 канала
Расположение каналов : Front: L R
Частота : 48,0 КГц
Битовая глубина : 16 бит
Метод сжатия : С потерями
Размер потока : 144 Мбайт (7%)
Заголовок : AC3 2.0CH @ 192K [Ольга Гринтиева и Константин Романов | GREEN TEA ]
Язык : Russian
Default : Да
Forced : Да

Скриншоты

Скачать

Скачать торрент! Огненная буря / Firestorm (Алан Юэнь / Alan Yuen) [2013, Гонконг, Китай, боевик, HDTVRip] DVO

Как скачивать? · Что такое торрент? · Рейтинг и ограничения

Сайт не распространяет и не хранит электронные версии произведений, а лишь предоставляет доступ к создаваемому пользователями каталогу ссылок на торрент-файлы, которые содержат только списки хеш-сумм

[Профиль] [ЛС]
Показать сообщения:    
Ответить на тему

Текущее время: Сегодня 23:16

Часовой пояс: GMT + 4



Вы не можете начинать темы
Вы не можете отвечать на сообщения
Вы не можете редактировать свои сообщения
Вы не можете удалять свои сообщения
Вы не можете голосовать в опросах
Вы не можете прикреплять файлы к сообщениям
Вы не можете скачивать файлы