Курьер из «Рая» (Михаил Хлебородов) [2013, Комедия, драма, мелодрама, приключения, криминал, DVDRip]

Ответить на тему
 
Автор Сообщение

user ®

Стаж: 7 лет 7 месяцев

Сообщений: 20008

Пост Пост: #1 от 03-Фев-2014 16:35

[Цитировать]

Курьер из «Рая»
Жанр: Комедия, драма, мелодрама, приключения, криминал
Год выпуска: 2013
Продолжительность: 01:28:50
Режиссёр: Михаил Хлебородов
В ролях: Евгений Ткачук, Елизавета Боярская, Гоша Куценко, Дмитрий Дюжев, Игорь Скляр, Дмитрий Нагиев, Артём Ткаченко, Екатерина Климова, Екатерина Федулова, Олег Тактаров, Дэнни Трехо
Описание: Егор Глазунов работает в криминальной полиции столицы и обладает удивительным даром - «врать с листа». Это умение очень выручает его в далёком маленьком городе, которых на карте России великое множество. Сюда Глазунов отправляется помочь другу детства Артёму - обычному курьеру с необычными принципами, у которого угнали доставшийся ему по странному стечению обстоятельств «Мерседес». Все следы ведут к местному авторитету, подобраться к которому невозможно. Последний шанс - прийти с «проверкой» из «следственного комитета». Сюжет гоголевского «Ревизора» превращается в историю новой России.

Качество видео: DVDRip (Исходник: DVD-5)
Формат видео: AVI
Видео: XviD, 704x400 (16:9), 25 кадр/с, 2078 Кбит/с
Аудио: Русский, Dolby AC3, 48000 Гц, 256 Кбит/с, 6 каналов (5.1)

MediaInfo

General
Complete name : Kur'er.iz.Raya.2013.DVDRip.avi
Format : AVI
Format/Info : Audio Video Interleave
File size : 1.45 GiB
Duration : 1h 28mn
Overall bit rate : 2 344 Kbps
Writing application : VirtualDubMod 1.5.10.3 | www.virtualdub-fr.org || (build 2550/release)
Writing library : VirtualDubMod build 2550/release
Video
ID : 0
Format : MPEG-4 Visual
Format profile : Advanced Simple@L5
Format settings, BVOP : 2
Format settings, QPel : No
Format settings, GMC : No warppoints
Format settings, Matrix : Default (H.263)
Codec ID : XVID
Codec ID/Hint : XviD
Duration : 1h 28mn
Bit rate : 2 078 Kbps
Width : 704 pixels
Height : 400 pixels
Display aspect ratio : 16:9
Frame rate : 25.000 fps
Color space : YUV
Chroma subsampling : 4:2:0
Bit depth : 8 bits
Scan type : Progressive
Compression mode : Lossy
Bits/(Pixel*Frame) : 0.295
Stream size : 1.29 GiB (89%)
Writing library : XviD 1.2.1 (UTC 2008-12-04)
Audio
ID : 1
Format : AC-3
Format/Info : Audio Coding 3
Mode extension : CM (complete main)
Codec ID : 2000
Duration : 1h 28mn
Bit rate mode : Constant
Bit rate : 256 Kbps
Channel(s) : 6 channels
Channel positions : Front: L C R, Side: L R, LFE
Sampling rate : 48.0 KHz
Bit depth : 16 bits
Compression mode : Lossy
Stream size : 163 MiB (11%)
Alignment : Split accross interleaves
Interleave, duration : 40 ms (1.00 video frame)
Interleave, preload duration : 500 ms

Скриншот c названием фильма

Скриншоты

Скачать

Скачать торрент!

Как скачивать? · Что такое торрент? · Рейтинг и ограничения

Сайт не распространяет и не хранит электронные версии произведений, а лишь предоставляет доступ к создаваемому пользователями каталогу ссылок на торрент-файлы, которые содержат только списки хеш-сумм

[Профиль] [ЛС]
Показать сообщения:    
Ответить на тему

Текущее время: Сегодня 00:44

Часовой пояс: GMT + 4



Вы не можете начинать темы
Вы не можете отвечать на сообщения
Вы не можете редактировать свои сообщения
Вы не можете удалять свои сообщения
Вы не можете голосовать в опросах
Вы не можете прикреплять файлы к сообщениям
Вы не можете скачивать файлы