Провал во времени / Миссия самураев / День апокалипсиса / Sengoku jieitai / G.I. Samurai / Day of the Apocalypse (Мицумаса Саито / Mitsumasa Saito) [1979, Япония, фантастика, военный, DVDRip] AVO (Кузнецов) + Sub Rus + Original Jap

Ответить на тему
 
Автор Сообщение

user ®

Стаж: 11 лет

Сообщений: 15151

Пост Пост: #1 от 02-Фев-2014 22:35

[Цитировать]

Провал во времени / Провал во времени: Воины Апокалипсиса / Провал во времени: Средневековая армия самообороны / Миссия самураев / День апокалипсиса / Sengoku jieitai / G.I. Samurai / Day of the Apocalypse
Страна: Япония
Жанр: фантастика, военный, боевик, приключение
Год выпуска: 1979
Продолжительность: 02:18:32
-
Перевод: Авторский (одноголосый закадровый) Сергей Кузнецов
Cубтитры: русские
Оригинальная аудиодорожка: японский
-
Режиссер: Мицумаса Саито / Mitsumasa Saito
В ролях: Сонни Чиба, Дзюн Это, Тоситака Ито, Харуки Кадокава, Хироси Камаяцу, Кэндзо Каварадзаки, Асао Койкэ, Кэнтаро Кудо, Ко Курайси, Масао Кусакари, Ёити Миура, Нобору Накая
-
Описание: Действие фильма начинается в конце 70-х годов ХХ века в Японии. Во время учений японской армии, группа военных, ночью, во-время передислокации попадает в аномальную зону, после чего попадает во времена самураев, когда япония была в состоянии междуусобных войн, шел передел территорий. Командир одного из подразделений японской армии, подружившись с одним из правителей, решили с помощью современного оружия, которое естественно тоже попало в те времена, завоевать всю Японию.
-
Версия такая же, как в других раздачах (02:21:36), просто короче финальные титры примерно на 3 минуты (другое издание)
-
Качество видео: DVDRip (DVD5)
Формат видео: AVI
Видео: 688x384 (1.79:1), 23.976 fps, XviD build 73 ~1855 kbps avg, 0.29 bit/pixel
Аудио 1: 48 kHz, AC3 Dolby Digital, 2/0 (L,R) ch, ~192 kbps RUS
Аудио 2: 48 kHz, AC3 Dolby Digital, 2/0 (L,R) ch, ~192 kbps JAP
Формат субтитров: softsub (SRT)

MediaInfo

General
Complete name : D:\Релизы\Sengoku jieitai.G.I. Samurai.1979.RUS.JAP.DVDRip.XviD.AC3\Sengoku jieitai.G.I. Samurai.1979.RUS.JAP.DVDRip.XviD.AC3.avi
Format : AVI
Format/Info : Audio Video Interleave
File size : 2.18 GiB
Duration : 2h 18mn
Overall bit rate : 2 254 Kbps
Writing application : VirtualDubMod 1.5.10.2 (build 2540/release)
Writing library : VirtualDubMod build 2540/release
Video
ID : 0
Format : MPEG-4 Visual
Format profile : Advanced Simple@L5
Format settings, BVOP : 1
Format settings, QPel : No
Format settings, GMC : No warppoints
Format settings, Matrix : Custom
Codec ID : XVID
Codec ID/Hint : XviD
Duration : 2h 18mn
Bit rate : 1 856 Kbps
Width : 688 pixels
Height : 384 pixels
Display aspect ratio : 16:9
Frame rate : 23.976 fps
Color space : YUV
Chroma subsampling : 4:2:0
Bit depth : 8 bits
Scan type : Progressive
Compression mode : Lossy
Bits/(Pixel*Frame) : 0.293
Stream size : 1.80 GiB (82%)
Writing library : XviD 73
Audio #1
ID : 1
Format : AC-3
Format/Info : Audio Coding 3
Mode extension : CM (complete main)
Format settings, Endianness : Big
Codec ID : 2000
Duration : 2h 18mn
Bit rate mode : Constant
Bit rate : 192 Kbps
Channel(s) : 2 channels
Channel positions : Front: L R
Sampling rate : 48.0 KHz
Bit depth : 16 bits
Compression mode : Lossy
Delay relative to video : 14ms
Stream size : 190 MiB (9%)
Alignment : Split accross interleaves
Interleave, duration : 42 ms (1.00 video frame)
Interleave, preload duration : 500 ms
Audio #2
ID : 2
Format : AC-3
Format/Info : Audio Coding 3
Mode extension : CM (complete main)
Format settings, Endianness : Big
Codec ID : 2000
Duration : 2h 18mn
Bit rate mode : Constant
Bit rate : 192 Kbps
Channel(s) : 2 channels
Channel positions : Front: L R
Sampling rate : 48.0 KHz
Bit depth : 16 bits
Compression mode : Lossy
Delay relative to video : 14ms
Stream size : 190 MiB (9%)
Alignment : Split accross interleaves
Interleave, duration : 42 ms (1.00 video frame)
Interleave, preload duration : 500 ms

Скриншоты

Скачать

Скачать торрент! Провал во времени / Миссия самураев / День апокалипсиса / Sengoku jieitai / G.I. Samurai / Day of the Apocalypse (Мицумаса Саито / Mitsumasa Saito) [1979, Япония, фантастика, военный, DVDRip] AVO (Кузнецов) + Sub Rus + Original Jap

Как скачивать? · Что такое торрент? · Рейтинг и ограничения

Сайт не распространяет и не хранит электронные версии произведений, а лишь предоставляет доступ к создаваемому пользователями каталогу ссылок на торрент-файлы, которые содержат только списки хеш-сумм

[Профиль] [ЛС]
Показать сообщения:    
Ответить на тему

Текущее время: Сегодня 11:21

Часовой пояс: GMT + 4



Вы не можете начинать темы
Вы не можете отвечать на сообщения
Вы не можете редактировать свои сообщения
Вы не можете удалять свои сообщения
Вы не можете голосовать в опросах
Вы не можете прикреплять файлы к сообщениям
Вы не можете скачивать файлы