Я буду рядом (Павел Игнатов) [2014, Мелодрама, SATRip]

Ответить на тему
 
Автор Сообщение

user ®

Стаж: 7 лет 7 месяцев

Сообщений: 20008

Пост Пост: #1 от 02-Фев-2014 19:25

[Цитировать]

Я буду рядом
Жанр: Мелодрама
Год выпуска: 2014
Продолжительность: 01:30:15
Режиссёр: Павел Игнатов
В ролях: Алексей Барабаш, Ольга Павловец, Анастасия Сорокина
Описание: Наташа никогда не жила для себя. Она всегда была старшей сестрой талантливой и красивой Маши. Оберегать ее и потакать капризам младшенькой Наташа не разучилась и в сознательной жизни. Поэтому она уступила ей Виктора - мужчину своей мечты. А потом еще и добровольно взвалила на себя роль няньки и домохозяйки в ее семье, когда Маша умчалась за перспективным кавалером за границу. Все, о чем мечтает Наташа, - это стать настоящей женой и мамой мужу и дочери непутевой сестры. И, кажется, спустя годы ожиданий, ее мечты начали сбываться. Но тут в квартире "молодоженов" появляется Маша...
Сэмпл: http://www.sendspace.com/file/v8qysf
Качество видео: SATRip
Формат видео: AVI
Видео: DivX, 1977 Кбит/с, 720x400, 25,000 кадров/сек
Аудио: MP3, 2 ch, 192 Кбит/с, 48,0 КГц

MediaInfo

I:\Я буду рядом\Ya.Budu.Ryadom.SATRip.avi
General
Complete name : I:\Я буду рядом\Ya.Budu.Ryadom.SATRip.avi
Format : AVI
Format/Info : Audio Video Interleave
File size : 1.37 GiB
Duration : 1h 30mn
Overall bit rate : 2 177 Kbps
Writing library : VirtualDub build 35491/release
Video #0
ID : 0
Format : MPEG-4 Visual
Format settings, BVOP : 1
Format settings, QPel : No
Format settings, GMC : No warppoints
Format settings, Matrix : Default (H.263)
Muxing mode : Packed bitstream
Codec ID : DX50
Codec ID/Hint : DivX 5
Duration : 1h 30mn
Bit rate : 1 975 Kbps
Width : 720 pixels
Height : 400 pixels
Display aspect ratio : 16:9
Frame rate : 25.000 fps
Color space : YUV
Chroma subsampling : 4:2:0
Bit depth : 8 bits
Scan type : Progressive
Compression mode : Lossy
Bits/(Pixel*Frame) : 0.274
Stream size : 1.25 GiB (91%)
Writing library : DivX 6.8.5 (UTC 2009-08-20)
Audio #1
ID : 1
Format : MPEG Audio
Format version : Version 1
Format profile : Layer 3
Mode : Joint stereo
Mode extension : MS Stereo
Codec ID : 55
Codec ID/Hint : MP3
Duration : 1h 30mn
Bit rate mode : Constant
Bit rate : 192 Kbps
Channel count : 2 channels
Sampling rate : 48.0 KHz
Compression mode : Lossy
Stream size : 124 MiB (9%)
Alignment : Split accross interleaves
Interleave, duration : 40 ms (1.00 video frame)
Interleave, preload duration : 500 ms

Скриншот c названием фильма

Скриншоты

Скачать

Скачать торрент!

Как скачивать? · Что такое торрент? · Рейтинг и ограничения

Сайт не распространяет и не хранит электронные версии произведений, а лишь предоставляет доступ к создаваемому пользователями каталогу ссылок на торрент-файлы, которые содержат только списки хеш-сумм

[Профиль] [ЛС]
Показать сообщения:    
Ответить на тему

Текущее время: Сегодня 14:35

Часовой пояс: GMT + 4



Вы не можете начинать темы
Вы не можете отвечать на сообщения
Вы не можете редактировать свои сообщения
Вы не можете удалять свои сообщения
Вы не можете голосовать в опросах
Вы не можете прикреплять файлы к сообщениям
Вы не можете скачивать файлы