Золото (Андрей Мармонтов) [2012, Драма, комедия, HDTVRip]

Ответить на тему
 
Автор Сообщение

user ®

Стаж: 8 лет 7 месяцев

Сообщений: 20007

Пост Пост: #1 от 02-Фев-2014 10:30

[Цитировать]

Золото
Жанр: Драма, комедия
Год выпуска: 2012
Продолжительность: 01:50:04
Режиссёр: Андрей Мармонтов
В ролях: Сергей Безруков, Ирина Скобцева, Андрей Мерзликин, Михаил Пореченков, Анна Герман, Максим Шибаев, Любовь Куликова, Владимир Кабалин, Алексей Шемес, Дарья Михайлова
Описание: Судебный пристав предъявляет семье Брагиных иск по карточным долгам пропавшего брата. Для расчётов — два месяца. Или Гордея, как брата должника ждёт арест и тюрьма. Выход один — бросить всё и бежать. Всех спасает золотая жила. Прииск быстро приносит богатство: теперь Гордей — золотопромышленник! Но новая беда — ещё хуже: деньги! Их слишком много! Все хотят получить их… И всё идёт не так… совсем не так… По мотивам романа уральского писателя Д. Н. Мамина-Сибиряка.
Сэмпл: http://multi-up.com/946519
Качество видео: HDTVRip
Формат видео: AVI
Видео: XviD, 1635 kb/s, 720x304, 25 fps
Аудио: MP3, 48 KHz, 2 ch, 192 Kbps

MediaInfo

I:\Золото\Zoloto.2012.HDTVRip.avi
General
Complete name : I:\Золото\Zoloto.2012.HDTVRip.avi
Format : AVI
Format/Info : Audio Video Interleave
Format profile : OpenDML
File size : 1.38 GiB
Duration : 1h 48mn
Overall bit rate : 1 817 Kbps
Writing application : Lavf54.63.104
Video #0
ID : 0
Format : xvid
Codec ID : xvid
Duration : 1h 48mn
Bit rate : 1 610 Kbps
Width : 720 pixels
Height : 304 pixels
Display aspect ratio : 2.35:1
Frame rate : 25.000 fps
Bits/(Pixel*Frame) : 0.294
Stream size : 1.22 GiB (89%)
Audio #1
ID : 1
Format : MPEG Audio
Format version : Version 1
Format profile : Layer 3
Mode : Joint stereo
Mode extension : MS Stereo
Codec ID : 55
Codec ID/Hint : MP3
Duration : 1h 48mn
Bit rate mode : Constant
Bit rate : 192 Kbps
Channel count : 2 channels
Sampling rate : 48.0 KHz
Compression mode : Lossy
Stream size : 149 MiB (11%)
Alignment : Aligned on interleaves
Interleave, duration : 24 ms (0.60 video frame)
Writing library : LAME3.99.5

Скриншот c названием фильма

Скриншоты

Скачать

Скачать торрент!

Как скачивать? · Что такое торрент? · Рейтинг и ограничения

Сайт не распространяет и не хранит электронные версии произведений, а лишь предоставляет доступ к создаваемому пользователями каталогу ссылок на торрент-файлы, которые содержат только списки хеш-сумм

[Профиль] [ЛС]
Показать сообщения:    
Ответить на тему

Текущее время: Сегодня 09:59

Часовой пояс: GMT + 4



Вы не можете начинать темы
Вы не можете отвечать на сообщения
Вы не можете редактировать свои сообщения
Вы не можете удалять свои сообщения
Вы не можете голосовать в опросах
Вы не можете прикреплять файлы к сообщениям
Вы не можете скачивать файлы