На цепи / Chained (Дженнифер Чэмберс Линч / Jennifer Chambers Lynch) [2012, США, триллер, BDRip 720p] DVO (R5) + MVO (BaibaKo) + VO (den904) + Sub (Rus, Eng) + Original (Eng)

Ответить на тему
 
Автор Сообщение

user ®

Стаж: 8 лет 3 месяца

Сообщений: 20008

Пост Пост: #1 от 02-Фев-2014 07:20

[Цитировать]

На цепи / Chained Страна: США
Жанр: триллер
Год выпуска: 2012
Продолжительность: 01:34:11
Перевод 1: Профессиональный (двухголосый закадровый) R5 - CD Land
Перевод 2: Любительский (многоголосый закадровый) BaibaKo (4 голоса)
Перевод 3: Одноголосый закадровый den904 по субтитрам Janetta
Cубтитры: русские от Groby, английские (+SDH)
Режиссер: Дженнифер Чэмберс Линч / Jennifer Chambers Lynch
В ролях: Винсент Д’Онофрио, Имон Фэррен, Ивэн Бёрд, Джулия Ормонд, Конор Лесли, Джейк Уэбер, Джина Филипс
Описание: Фильм «На цепи» изначально расскажет нам о матери и её восьмилетнем сыне, которые на свою беду садятся в такси к водителю, оказавшемуся невменяемым.
Боб (В. Д’Онофрио) - водитель такси и серийный убийца - безжалостно преследует свою добычу на городских улицах. Мать, в исполнении Джулии Ормонд,
становится его очередной жертвой, а её сын переходит под неоднозначную опеку маньяка. Отныне мальчик должен хоронить тела убитых Бобом женщин и во всём слушаться его.
Сможет ли юный герой фильма сделать правильный выбор и вырваться из лап своего похитителя? Увидим в конце
...

IMDB: 6.4/10
Сэмпл: Скачать
Исходник: Chained 2012 1080p ITA Blu-ray AVC DTS-HD MA 5.1
Тип релиза: BDRip 720p (HiDt)
Контейнер: MKV
Видео: MPEG-4 AVC / 1280x532 / 4440 kbps / 23.976 fps / 2.40:1 / High Profile 4.1
Аудио 1: Русский / AC3 / 2.0 / 48 kHz / 192 kbps (R5)
Аудио 2: Русский / AC3 / 5.1 / 48 kHz / 640 kbps / DN -4dB (BaibaKo) от ARTYq
Аудио 3: Русский / AC3 / 5.1 / 48 kHz / 640 kbps / DN -4dB (den904)
Аудио 4: Английский / AC3 / 5.1 / 48 kHz / 640 kbps / DN -4dB (Original)
Формат субтитров: подключаемые (SRT)
Навигация по главам: естьТоррент перезалит 02.02.14. Добавлена озвучка с DVD-5 от CD Land.

MediaInfo

General
Unique ID : 235333571217089948861685099750917732504 (0xB10B98E04EAC06C6987EFCFABDFCF898)
Complete name : D:\Chained.2012.720p.BluRay.3xRus.Eng.x264-HiDt.mkv
Format : Matroska
Format version : Version 2
File size : 4.44 GiB
Duration : 1h 34mn
Overall bit rate : 6 745 Kbps
Movie name : Chained (2012)
Encoded date : UTC 2014-01-31 15:34:56
Writing application : mkvmerge v5.8.0 ('No Sleep / Pillow') built on Sep 2 2012 15:37:04
Writing library : libebml v1.2.3 + libmatroska v1.3.0
Video
ID : 1
Format : AVC
Format/Info : Advanced Video Codec
Format profile : High@L4.1
Format settings, CABAC : Yes
Format settings, ReFrames : 12 frames
Codec ID : V_MPEG4/ISO/AVC
Duration : 1h 34mn
Bit rate : 4 498 Kbps
Width : 1 280 pixels
Height : 532 pixels
Display aspect ratio : 2.40:1
Frame rate mode : Constant
Frame rate : 23.976 fps
Color space : YUV
Chroma subsampling : 4:2:0
Bit depth : 8 bits
Scan type : Progressive
Bits/(Pixel*Frame) : 0.276
Stream size : 2.96 GiB (67%)
Title : HiDt
Writing library : x264 core 120 r2164 da19765
Encoding settings : cabac=1 / ref=12 / deblock=1:-3:-3 / analyse=0x3:0x113 / me=tesa / subme=10 / psy=1 / psy_rd=0.95:0.00 / mixed_ref=1 / me_range=48 / chroma_me=1 / trellis=2 / 8x8dct=1 / cqm=0 / deadzone=21,11 / fast_pskip=0 / chroma_qp_offset=-2 / threads=12 / sliced_threads=0 / nr=0 / decimate=1 / interlaced=0 / bluray_compat=0 / constrained_intra=0 / bframes=6 / b_pyramid=2 / b_adapt=2 / b_bias=0 / direct=3 / weightb=1 / open_gop=0 / weightp=2 / keyint=250 / keyint_min=25 / scenecut=40 / intra_refresh=0 / rc=crf / mbtree=0 / crf=15.6 / qcomp=0.75 / qpmin=0 / qpmax=69 / qpstep=4 / ip_ratio=1.40 / pb_ratio=1.30 / aq=1:0.80
Language : Italian
Default : Yes
Forced : No
Audio #1
ID : 2
Format : AC-3
Format/Info : Audio Coding 3
Mode extension : CM (complete main)
Format settings, Endianness : Big
Codec ID : A_AC3
Duration : 1h 34mn
Bit rate mode : Constant
Bit rate : 192 Kbps
Channel(s) : 2 channels
Channel positions : Front: L R
Sampling rate : 48.0 KHz
Bit depth : 16 bits
Compression mode : Lossy
Stream size : 129 MiB (3%)
Title : R5, CD Land
Language : Russian
Default : Yes
Forced : No
Audio #2
ID : 3
Format : AC-3
Format/Info : Audio Coding 3
Mode extension : CM (complete main)
Format settings, Endianness : Big
Codec ID : A_AC3
Duration : 1h 34mn
Bit rate mode : Constant
Bit rate : 640 Kbps
Channel(s) : 6 channels
Channel positions : Front: L C R, Side: L R, LFE
Sampling rate : 48.0 KHz
Bit depth : 16 bits
Compression mode : Lossy
Stream size : 431 MiB (9%)
Title : MVO BaibaKo
Language : Russian
Default : No
Forced : No
Audio #3
ID : 4
Format : AC-3
Format/Info : Audio Coding 3
Mode extension : CM (complete main)
Format settings, Endianness : Big
Codec ID : A_AC3
Duration : 1h 34mn
Bit rate mode : Constant
Bit rate : 640 Kbps
Channel(s) : 6 channels
Channel positions : Front: L C R, Side: L R, LFE
Sampling rate : 48.0 KHz
Bit depth : 16 bits
Compression mode : Lossy
Stream size : 431 MiB (9%)
Title : VO den904
Language : Russian
Default : No
Forced : No
Audio #4
ID : 5
Format : AC-3
Format/Info : Audio Coding 3
Mode extension : CM (complete main)
Format settings, Endianness : Big
Codec ID : A_AC3
Duration : 1h 34mn
Bit rate mode : Constant
Bit rate : 640 Kbps
Channel(s) : 6 channels
Channel positions : Front: L C R, Side: L R, LFE
Sampling rate : 48.0 KHz
Bit depth : 16 bits
Compression mode : Lossy
Stream size : 431 MiB (9%)
Title : Original
Language : English
Default : No
Forced : No
Text #1
ID : 6
Format : UTF-8
Codec ID : S_TEXT/UTF8
Codec ID/Info : UTF-8 Plain Text
Title : Groby
Language : Russian
Default : No
Forced : No
Text #2
ID : 7
Format : UTF-8
Codec ID : S_TEXT/UTF8
Codec ID/Info : UTF-8 Plain Text
Title : Full
Language : English
Default : No
Forced : No
Text #3
ID : 8
Format : UTF-8
Codec ID : S_TEXT/UTF8
Codec ID/Info : UTF-8 Plain Text
Title : SDH
Language : English
Default : No
Forced : No
Menu
00:00:00.000 : en:00:00:00.000
00:02:29.483 : en:00:02:29.483
00:07:33.453 : en:00:07:33.453
00:11:40.658 : en:00:11:40.658
00:16:04.839 : en:00:16:04.839
00:20:46.537 : en:00:20:46.537
00:22:52.037 : en:00:22:52.037
00:29:29.017 : en:00:29:29.017
00:33:36.765 : en:00:33:36.765
00:38:38.233 : en:00:38:38.233
00:42:57.116 : en:00:42:57.116
00:48:34.995 : en:00:48:34.995
00:53:30.165 : en:00:53:30.165
00:57:40.791 : en:00:57:40.791
01:01:51.666 : en:01:01:51.666
01:07:20.912 : en:01:07:20.912
01:12:53.911 : en:01:12:53.911
01:18:32.958 : en:01:18:32.958
01:24:15.133 : en:01:24:15.133
01:31:25.814 : en:01:31:25.814

Скриншоты / Source vs Encode


Дополнительно

Рип от группы EbP без указания настроек кодирования заменен на рип от группы HiDt с указанием настроек кодирования (см. MI)
Скачать

Скачать торрент!

Как скачивать? · Что такое торрент? · Рейтинг и ограничения

Сайт не распространяет и не хранит электронные версии произведений, а лишь предоставляет доступ к создаваемому пользователями каталогу ссылок на торрент-файлы, которые содержат только списки хеш-сумм

[Профиль] [ЛС]
Показать сообщения:    
Ответить на тему

Текущее время: Сегодня 14:43

Часовой пояс: GMT + 4



Вы не можете начинать темы
Вы не можете отвечать на сообщения
Вы не можете редактировать свои сообщения
Вы не можете удалять свои сообщения
Вы не можете голосовать в опросах
Вы не можете прикреплять файлы к сообщениям
Вы не можете скачивать файлы