Доктор / Doctor / Dak-teo ( Ким Сон Хон / Kim Sung-Hong) [2012, Южная Корея, триллер, HDRip] DVO

Ответить на тему
 
Автор Сообщение

user ®

Стаж: 13 лет

Сообщений: 15071

Пост Пост: #1 от 02-Фев-2014 01:00

[Цитировать]

Доктор / Doctor / Dak-teo
Страна: Южная Корея
Жанр: триллер
Год выпуска: 2012
Продолжительность: 01:36:33-Перевод: Любительский (двухголосый закадровый) den904 &DeadSno
Cубтитры: нет
Оригинальная аудиодорожка: нет-Режиссер: Ким Сон Хон / Kim Sung-Hong
В ролях: Ким Чхан Ан, Пэ Со Ын, Со Кын У, Хан Да Ын-Описание: Пластический хирург, доведенный до психоза изменами своей молодой жены, при помощи своих хирургических способностей начинает делать мир чище, лучше и добрее и... прекраснее- -Релиз группы
-Качество видео: HDRip
Формат видео: AVI
Видео: XviD, 720x304 (2.37:1), 24.000 fps, 1965 kbps avg, 0.37 bit/pixel
Аудио: Русский MPEG layer 3, 48 kHz, 2 ch, 192 kbps-

Доп. информация

Переводчик: Skyworker
Рип: Public Enemy (((
Постер: Public Enemy (((
Звук: Гуннлауг (((

MediaInfo

Format : AVI
Format/Info : Audio Video Interleave
File size : 1.46 GiB
Duration : 1h 36mn
Overall bit rate : 2 167 Kbps
Writing application : VirtualDubMod 1.5.10.2 (build 2540/release)
Writing library : VirtualDubMod build 2540/release
Video
ID : 0
Format : MPEG-4 Visual
Format profile : Advanced Simple@L5
Format settings, BVOP : 1
Format settings, QPel : No
Format settings, GMC : No warppoints
Format settings, Matrix : Custom
Codec ID : XVID
Codec ID/Hint : XviD
Duration : 1h 36mn
Bit rate : 1 965 Kbps
Width : 720 pixels
Height : 304 pixels
Display aspect ratio : 2.35:1
Frame rate : 24.000 fps
Color space : YUV
Chroma subsampling : 4:2:0
Bit depth : 8 bits
Scan type : Progressive
Compression mode : Lossy
Bits/(Pixel*Frame) : 0.374
Stream size : 1.33 GiB (91%)
Writing library : XviD 73
Audio
ID : 1
Format : MPEG Audio
Format version : Version 1
Format profile : Layer 3
Mode : Joint stereo
Codec ID : 55
Codec ID/Hint : MP3
Duration : 1h 36mn
Bit rate mode : Constant
Bit rate : 192 Kbps
Channel(s) : 2 channels
Sampling rate : 48.0 KHz
Compression mode : Lossy
Stream size : 133 MiB (9%)
Alignment : Aligned on interleaves
Interleave, duration : 42 ms (1.00 video frame)
Interleave, preload duration : 504 ms

Скриншот с названием

Скриншоты

Скачать

Скачать торрент! Доктор / Doctor / Dak-teo ( Ким Сон Хон / Kim Sung-Hong) [2012, Южная Корея, триллер, HDRip] DVO

Как скачивать? · Что такое торрент? · Рейтинг и ограничения

Сайт не распространяет и не хранит электронные версии произведений, а лишь предоставляет доступ к создаваемому пользователями каталогу ссылок на торрент-файлы, которые содержат только списки хеш-сумм

[Профиль] [ЛС]
Показать сообщения:    
Ответить на тему

Текущее время: Сегодня 22:07

Часовой пояс: GMT + 4



Вы не можете начинать темы
Вы не можете отвечать на сообщения
Вы не можете редактировать свои сообщения
Вы не можете удалять свои сообщения
Вы не можете голосовать в опросах
Вы не можете прикреплять файлы к сообщениям
Вы не можете скачивать файлы