Белая лиса / The Fox Lover / Bai Hu (Чаоян Ниу / Chaoyang Niu) [2013, Китай, фэнтези, боевик, драма, мелодрама, HDTVRip-AVC] DVO (Ульяна Громова и Дмитрий Познанский) + Sub Eng

Ответить на тему
 
Автор Сообщение

user ®

Стаж: 11 лет

Сообщений: 15151

Пост Пост: #1 от 02-Фев-2014 01:00

[Цитировать]

Белая лиса / The Fox Lover / Bai Hu
Страна: Китай
Жанр: фэнтези, боевик, драма, мелодрама
Год выпуска: 2013
Продолжительность: 02:04:55
Перевод: Любительский (двухголосый закадровый) Ульяна Громова и Дмитрий Познанский
Cубтитры: английские (неотключаемые)
Режиссер: Чаоян Ниу / Chaoyang Niu
В ролях: Гиллиан Чун, Джулиан Чунг, Кара Хуи, Гао Ху, Бэньчан Ю
Описание: Мир полон чудес и приключений! Как и история любви волшебной лисицы к смертному парню, в душе которого скрыта огромная сила, способная победить злых демонов и спасти магический мир!
Доп. информация: релиз группы GREEN TEA
Перевод: Наталья Кондакова
Работа со звуком: Ольга Гринтиева
Сэмпл: http://www.sendspace.com/file/7uiaf7
Качество видео: HDTVRip-AVC
Формат видео: MKV
Видео: 854x368 (2.35:1), 25.000 fps, AVC (H.264), Main@L4.0 ~ 1500 kbps, 0.191 bit/pixel
Аудио: 48 kHz, AC3 Dolby Digital, 2/0 (L,R) ch, ~192 kbps

MediaInfo

I:\Белая лиса\[GREEN TEA] Белая лиса.2013.480p.HDTV.x264-ZrL.mkv
General
Unique ID : 197084467499694071160474829730779229615 (0x94451676FD2C3766A3F31D1EA2C3EDAF)
Complete name : I:\Белая лиса\[GREEN TEA] Белая лиса.2013.480p.HDTV.x264-ZrL.mkv
Format : Matroska
Format version : Version 2
File size : 1.47 GiB
Duration : 2h 4mn
Overall bit rate : 1 688 Kbps
Encoded date : UTC 2014-01-27 11:53:59
Writing application : mkvmerge v5.7.0 ('The Whirlwind') built on Jul 8 2012 20:08:51
Writing library : libebml v1.2.3 + libmatroska v1.3.0
Video #1
ID : 1
Format : AVC
Format/Info : Advanced Video Codec
Format profile : Main@L4.0
Format settings, CABAC : Yes
Format settings, ReFrames : 4 frames
Muxing mode : Header stripping
Codec ID : V_MPEG4/ISO/AVC
Duration : 2h 4mn
Bit rate : 1 500 Kbps
Width : 854 pixels
Height : 368 pixels
Display aspect ratio : 2.35:1
Frame rate mode : Constant
Frame rate : 25.000 fps
Color space : YUV
Chroma subsampling : 4:2:0
Bit depth : 8 bits
Scan type : Progressive
Bits/(Pixel*Frame) : 0.191
Stream size : 1.28 GiB (87%)
Writing library : x264 core 130 r2273 b3065e6
Encoding settings : cabac=1 / ref=1 / deblock=1:0:0 / analyse=0x1:0x111 / me=hex / subme=2 / psy=1 / psy_rd=1.00:0.00 / mixed_ref=0 / me_range=16 / chroma_me=1 / trellis=0 / 8x8dct=0 / cqm=0 / deadzone=21,11 / fast_pskip=1 / chroma_qp_offset=0 / threads=3 / lookahead_threads=1 / sliced_threads=0 / nr=0 / decimate=1 / interlaced=0 / bluray_compat=0 / constrained_intra=0 / bframes=3 / b_pyramid=2 / b_adapt=1 / b_bias=0 / direct=1 / weightb=1 / open_gop=0 / weightp=1 / keyint=250 / keyint_min=25 / scenecut=40 / intra_refresh=0 / rc_lookahead=10 / rc=abr / mbtree=1 / bitrate=1500 / ratetol=1.0 / qcomp=0.60 / qpmin=0 / qpmax=69 / qpstep=4 / vbv_maxrate=20000 / vbv_bufsize=25000 / nal_hrd=none / ip_ratio=1.40 / aq=1:1.00
Language : English
Default : Yes
Forced : No
Color primaries : BT.601 PAL
Transfer characteristics : BT.709
Matrix coefficients : BT.601
Audio #2
ID : 2
Format : AC-3
Format/Info : Audio Coding 3
Mode extension : CM (complete main)
Format settings, Endianness : Big
Muxing mode : Header stripping
Codec ID : A_AC3
Duration : 2h 4mn
Bit rate mode : Constant
Bit rate : 192 Kbps
Channel count : 2 channels
Channel positions : Front: L R
Sampling rate : 48.0 KHz
Bit depth : 16 bits
Compression mode : Lossy
Stream size : 172 MiB (11%)
Default : Yes
Forced : No

Скриншот c названием фильма

Скриншоты

Скачать

Скачать торрент! Белая лиса / The Fox Lover / Bai Hu (Чаоян Ниу / Chaoyang Niu) [2013, Китай, фэнтези, боевик, драма, мелодрама, HDTVRip-AVC] DVO (Ульяна Громова и Дмитрий Познанский) + Sub Eng

Как скачивать? · Что такое торрент? · Рейтинг и ограничения

Сайт не распространяет и не хранит электронные версии произведений, а лишь предоставляет доступ к создаваемому пользователями каталогу ссылок на торрент-файлы, которые содержат только списки хеш-сумм

[Профиль] [ЛС]
Показать сообщения:    
Ответить на тему

Текущее время: Сегодня 22:16

Часовой пояс: GMT + 4



Вы не можете начинать темы
Вы не можете отвечать на сообщения
Вы не можете редактировать свои сообщения
Вы не можете удалять свои сообщения
Вы не можете голосовать в опросах
Вы не можете прикреплять файлы к сообщениям
Вы не можете скачивать файлы