Младенец на прогулке, или Ползком от гангстеров / Baby\'s Day Out (Патрик Рид Джонсон / Patrick Read Johnson) [1994, США, драма, мелодрама, комедия, WEB-DL 720p] 2xMVO + 2xDVO + 3xAVO + Original + subs (Rus, Eng)

Ответить на тему
 
Автор Сообщение

user ®

Стаж: 7 лет 7 месяцев

Сообщений: 20008

Пост Пост: #1 от 02-Фев-2014 01:00

[Цитировать]

Младенец на прогулке, или Ползком от гангстеров / Baby's Day Out- Год выпуска: 1994
Выпущено: США
Жанр: драма, мелодрама, комедия
Продолжительность: 01:38:50
Перевод: Профессиональный (многоголосый, закадровый) R5
+ Профессиональный (двухголосый, закадровый) Laser Video
+ Профессиональный (многоголосый, закадровый) 1 канал
+ Профессиональный (двухголосый, закадровый) Ren-TV
+ Авторский одноголосый А.Гаврилов
+ Авторский одноголосый В.Горчаков (с VHS)
+ Авторский одноголосый Пронин (с VHS)
Оригинальная звуковая дорожка: English
Cубтитры: Russian (R5), English-Режиссер: Патрик Рид Джонсон / Patrick Read Johnson
В ролях: Джо Мантенья, Лара Флинн Бойл, Джо Пантольяно, Брайан Хейли, Синтия Никсон, Фред Долтон Томпсон, Джон Невилл, Мэттью Глэйв, Адам Роберт Уортон, Джейкоб Джозеф Уортон
О фильме: Малыш Бинк путешествует по городу весь день: необычные места, потрясающие виды, но он гуляет совершенно один! Отчаянно разыскиваемый собственными родителями, ставший знаменитым, благодаря прессе, малыш противостоит группе гангстеров, охотящихся за ним ради денег, предложенных его богатыми родителями. Невозмутимый, собранный и абсолютно не сознающий всех разрушений, которые он производит, малыш создаст столько неприятностей бандитам, что никаких денег им не захочется!-Релиз: by spartanec163
Формат: MKV
Видео: 1280x692 at 23.976 fps, x264, ~4000 kbps avg
Аудио #1: Russian: 48 kHz, AC3, 3/2 (L,C,R,l,r) + LFE ch, ~384.00 kbps avg |Профессиональный, многоголосый - R5|
Аудио #2: Russian: 48 kHz, AC3, 2.0 (L,R) ch, ~192.00 kbps avg |Профессиональный, двухголосый - LaserVideo|
Аудио #3: Russian: 48 kHz, AC3, 2.0 (L,R) ch, ~192.00 kbps avg |Профессиональный, многоголосый - 1 канал|
Аудио #4: Russian: 48 kHz, AC3, 1.0 (C) ch, ~192.00 kbps avg |Профессиональный, двухголосый - Ren-TV|
Аудио #5: Russian: 48 kHz, AC3, 3/2 (L,C,R,l,r) + LFE ch, ~384.00 kbps avg |Авторский, одноголосый - Гаврилов|
Аудио #6: Russian: 48 kHz, AC3, 2.0 (L,R) ch, ~192.00 kbps avg |Авторский, одноголосый - Горчаков (с VHS)|
Аудио #7: Russian: 48 kHz, AC3, 2.0 (L,R) ch, ~192.00 kbps avg |Авторский, одноголосый - Пронин (с VHS)|
Аудио #8: English: 48 kHz, AC3, 3/2 (L,C,R,l,r) + LFE ch, ~384.00 kbps avg |Оригинал|
Семпл-

Кадры из фильма


-

mInfo


Формат : Matroska
Версия формата : Version 4 / Version 2
Размер файла : 4,28 Гбайт
Продолжительность : 1 ч. 38 м.
Общий поток : 6197 Кбит/сек
Название фильма : Release by spartanec163
Дата кодирования : UTC 2014-02-01 04:00:45
Программа кодирования : mkvmerge v6.1.0 ('Old Devil') built on Mar 2 2013 14:32:37
Библиотека кодирования : libebml v1.3.0 + libmatroska v1.4.0
Видео
Идентификатор : 1
Формат : AVC
Формат/Информация : Advanced Video Codec
Профиль формата : High@L3.1
Параметр CABAC формата : Нет
Параметр ReFrames формата : 2 кадра
Идентификатор кодека : V_MPEG4/ISO/AVC
Продолжительность : 1 ч. 38 м.
Битрейт : 3961 Кбит/сек
Ширина : 1280 пикселей
Высота : 692 пикселя
Соотношение сторон : 1,85:1
Режим частоты кадров : Постоянный
Частота кадров : 23,976 кадра/сек
Цветовое пространство : YUV
Субдискретизация насыщенности : 4:2:0
Битовая глубина : 8 бит
Тип развёртки : Прогрессивная
Бит/(Пиксели*Кадры) : 0.187
Размер потока : 2,73 Гбайт (64%)
Заголовок : WEB-DL 720p (US iTunes)
Язык : English
Default : Да
Forced : Нет
Основные цвета : BT.709
Характеристики трансфера : BT.709
Коэффициенты матрицы : BT.709
Аудио #1
Идентификатор : 2
Формат : AC-3
Формат/Информация : Audio Coding 3
Расширение режима : CM (complete main)
Параметр Endianness формата : Big
Идентификатор кодека : A_AC3
Продолжительность : 1 ч. 38 м.
Вид битрейта : Постоянный
Битрейт : 384 Кбит/сек
Каналы : 6 каналов
Расположение каналов : Front: L C R, Side: L R, LFE
Частота : 48,0 КГц
Битовая глубина : 16 бит
Метод сжатия : С потерями
Размер потока : 271 Мбайт (6%)
Заголовок : AC3 5.1 384Kbps (Профессиональный, многоголосый - R5)
Язык : Russian
Default : Да
Forced : Нет
Аудио #2
Идентификатор : 3
Формат : AC-3
Формат/Информация : Audio Coding 3
Расширение режима : CM (complete main)
Параметр Endianness формата : Big
Идентификатор кодека : A_AC3
Продолжительность : 1 ч. 38 м.
Вид битрейта : Постоянный
Битрейт : 192 Кбит/сек
Каналы : 2 канала
Расположение каналов : Front: L R
Частота : 48,0 КГц
Битовая глубина : 16 бит
Метод сжатия : С потерями
Размер потока : 136 Мбайт (3%)
Заголовок : AC3 2.0 192Kbps (Профессиональный, двухголосый - LaserVideo)
Язык : Russian
Default : Нет
Forced : Нет
Аудио #3
Идентификатор : 4
Формат : AC-3
Формат/Информация : Audio Coding 3
Расширение режима : CM (complete main)
Параметр Endianness формата : Big
Идентификатор кодека : A_AC3
Продолжительность : 1 ч. 38 м.
Вид битрейта : Постоянный
Битрейт : 192 Кбит/сек
Каналы : 2 канала
Расположение каналов : Front: L R
Частота : 48,0 КГц
Битовая глубина : 16 бит
Метод сжатия : С потерями
Размер потока : 136 Мбайт (3%)
Заголовок : AC3 2.0 192Kbps (Профессиональный, многоголосый - 1 канал)
Язык : Russian
Default : Нет
Forced : Нет
Аудио #4
Идентификатор : 5
Формат : AC-3
Формат/Информация : Audio Coding 3
Расширение режима : CM (complete main)
Параметр Endianness формата : Big
Идентификатор кодека : A_AC3
Продолжительность : 1 ч. 38 м.
Вид битрейта : Постоянный
Битрейт : 192 Кбит/сек
Каналы : 1 канал
Расположение каналов : Front: C
Частота : 48,0 КГц
Битовая глубина : 16 бит
Метод сжатия : С потерями
Размер потока : 136 Мбайт (3%)
Заголовок : AC3 1.0 192Kbps (Профессиональный, двухголосый - Ren-TV)
Язык : Russian
Default : Нет
Forced : Нет
Аудио #5
Идентификатор : 6
Формат : AC-3
Формат/Информация : Audio Coding 3
Расширение режима : CM (complete main)
Параметр Endianness формата : Big
Идентификатор кодека : A_AC3
Продолжительность : 1 ч. 38 м.
Вид битрейта : Постоянный
Битрейт : 384 Кбит/сек
Каналы : 6 каналов
Расположение каналов : Front: L C R, Side: L R, LFE
Частота : 48,0 КГц
Битовая глубина : 16 бит
Метод сжатия : С потерями
Размер потока : 271 Мбайт (6%)
Заголовок : AC3 5.1 384Kbps (Авторский, одноголосый - А. Гаврилов)
Язык : Russian
Default : Нет
Forced : Нет
Аудио #6
Идентификатор : 7
Формат : AC-3
Формат/Информация : Audio Coding 3
Расширение режима : CM (complete main)
Параметр Endianness формата : Big
Идентификатор кодека : A_AC3
Продолжительность : 1 ч. 38 м.
Вид битрейта : Постоянный
Битрейт : 192 Кбит/сек
Каналы : 2 канала
Расположение каналов : Front: L R
Частота : 48,0 КГц
Битовая глубина : 16 бит
Метод сжатия : С потерями
Размер потока : 136 Мбайт (3%)
Заголовок : AC3 2.0 192Kbps (Авторский, одноголосый - В. Горчаков)
Язык : Russian
Default : Нет
Forced : Нет
Аудио #7
Идентификатор : 8
Формат : AC-3
Формат/Информация : Audio Coding 3
Расширение режима : CM (complete main)
Параметр Endianness формата : Big
Идентификатор кодека : A_AC3
Продолжительность : 1 ч. 38 м.
Вид битрейта : Постоянный
Битрейт : 192 Кбит/сек
Каналы : 2 канала
Расположение каналов : Front: L R
Частота : 48,0 КГц
Битовая глубина : 16 бит
Метод сжатия : С потерями
Размер потока : 136 Мбайт (3%)
Заголовок : AC3 2.0 192Kbps (Авторский, одноголосый - Пронин)
Язык : Russian
Default : Нет
Forced : Нет
Аудио #8
Идентификатор : 9
Формат : AC-3
Формат/Информация : Audio Coding 3
Расширение режима : CM (complete main)
Параметр Endianness формата : Big
Идентификатор кодека : A_AC3
Продолжительность : 1 ч. 38 м.
Вид битрейта : Постоянный
Битрейт : 384 Кбит/сек
Каналы : 6 каналов
Расположение каналов : Front: L C R, Side: L R, LFE
Частота : 48,0 КГц
Битовая глубина : 16 бит
Метод сжатия : С потерями
Размер потока : 271 Мбайт (6%)
Заголовок : AC3 5.1 384Kbps (Оригинал)
Язык : English
Default : Нет
Forced : Нет
Текст #1
Идентификатор : 10
Формат : UTF-8
Идентификатор кодека : S_TEXT/UTF8
Идентификатор кодека/Информация : UTF-8 Plain Text
Заголовок : R5
Язык : Russian
Default : Нет
Forced : Нет
Текст #2
Идентификатор : 11
Формат : UTF-8
Идентификатор кодека : S_TEXT/UTF8
Идентификатор кодека/Информация : UTF-8 Plain Text
Язык : English
Default : Нет
Forced : Нет
Меню
00:00:00.000 : en:Main Titles
00:02:47.000 : en:Baby Bink
00:04:45.000 : en:The Photographer
00:07:33.000 : en:The Impostors
00:10:44.000 : en:A Photo Sitting
00:13:28.000 : en:Abduction
00:17:47.000 : en:Naptime
00:22:36.000 : en:Out the Window
00:27:35.000 : en:Down the Elevator
00:28:57.000 : en:On the Bus
00:34:21.000 : en:Hitching a Ride
00:42:17.000 : en:At the Zoo
00:54:18.000 : en:In the Park
01:05:01.000 : en:On the Job
01:17:35.000 : en:Stuck
01:23:31.000 : en:Police Report
01:25:42.000 : en:Reunited
01:29:48.000 : en:Hearing Babies
01:32:53.000 : en:Back Home
01:33:47.000 : en:End Titles

-

*** Исходная вебка куплена в американском iTunes на личные средства.
*** Исходные многоголоски, двухголоски и Гаврилов взяты с rutracker'а: за R5 спасибо Стоша Говнозад, за LaserVideo - formally и Fikaloid, за Ren-TV - mixaiil77 и bora86bora, за Гаврилова - leonidkk; Горчаков и Пронин с nnm-club'а; 1-ый канал - JUSTKANT, message258, ofiso.
*** В переводе Рен-ТВ были пропуски, они заменены другим переводом.
-
Скачать

Скачать торрент!

Как скачивать? · Что такое торрент? · Рейтинг и ограничения

Сайт не распространяет и не хранит электронные версии произведений, а лишь предоставляет доступ к создаваемому пользователями каталогу ссылок на торрент-файлы, которые содержат только списки хеш-сумм

[Профиль] [ЛС]
Показать сообщения:    
Ответить на тему

Текущее время: Сегодня 08:12

Часовой пояс: GMT + 4



Вы не можете начинать темы
Вы не можете отвечать на сообщения
Вы не можете редактировать свои сообщения
Вы не можете удалять свои сообщения
Вы не можете голосовать в опросах
Вы не можете прикреплять файлы к сообщениям
Вы не можете скачивать файлы