Дом храбрых / Home of the Brave (Ирвин Уинклер / Irwin Winkler) [2006, США, Марокко, драма, военный, BDRemux 1080p] MVO + Sub Rus, Eng + Original Eng

Ответить на тему
 
Автор Сообщение

user ®

Стаж: 7 лет 7 месяцев

Сообщений: 20008

Пост Пост: #1 от 02-Фев-2014 01:00

[Цитировать]

Дом храбрых / Home of the Brave- -Страна: США, Мaрокко
Жанр: драма, военный
Год выпуска: 2006
Продолжительность: 01:42:12-Перевод: Профессиональный (многоголосый закадровый)
Cубтитры: русские, английские
Оригинальная аудиодорожка: английский-Режиссер: Ирвин Уинклер / Irwin Winkler
Сценарий: Марк Фридман, Ирвин Уинклер
Продюсеры: Роб Кауэн, Рэндолл Эмметт, Джордж Фурла, ...
Оператор: Тони Пирс-Робертс
Композитор: Стивен Эндельман
Художники: Уоррен Алан Янг, Винсент ДеФеличе, Керин Вагнер, ...
Монтаж: Клэйтон Халсли
В ролях: Сэмюэл Л. Джексон / Джессика Бил / Брайан Прэсли / Фифти Сент / Кристина Риччи / Чад Майкл Мюррэй / Виктория Роуэлл / Джеффри Нордлинг / Вито Руджинис / Сэм Джонс III-Описание: 4 солдата пытаются смириться с реальностью после возвращения домой из Ирака. Первая мать одиночка потеряла на войне руку, второй врач видел слишком много смертей, третий не может забыть как случайно убил арабскую женщину, а четвертый потерял там лучшего друга.- -Тип релиза: BDRemux 1080p
Контейнер: MKV
Видео: MPEG-2 Video 1920x1080@23.976 21061 kbps 16:9
Аудио 1: MVO Russian DTS 768 kBit/s 48 kHz 5.1
Аудио 2: English DTS-HD MA 1911 kbps 5.1 / 48 kHz / 1911 kbps / 24-bit (DTS Core: 5.1 / 48 kHz / 768 kbps / 24-bit)
Аудио 3: Commentaries Dolby Digital Audio 2.0 / 48 kHz / 224 kbps / DN -4dB-

MediaInfo

General
Unique ID : 253034139670386303273014631907870846075 (0xBE5C9A478E2280A6A4F394753A0B2C7B)
Complete name : I:\__R__\Home of the Brave.mkv
Format : Matroska
Format version : Version 4 / Version 2
File size : 17.3 GiB
Duration : 1h 46mn
Overall bit rate mode : Variable
Overall bit rate : 23.2 Mbps
Encoded date : UTC 2014-01-30 20:13:30
Writing application : mkvmerge v6.5.0 ('Isn't she lovely') built on Oct 20 2013 12:50:05
Writing library : libebml v1.3.0 + libmatroska v1.4.1
Attachment : Yes
Video
ID : 1
Format : MPEG Video
Format version : Version 2
Format profile : Main@High
Format settings, BVOP : No
Format settings, Matrix : Custom
Codec ID : V_MPEG2
Codec ID/Info : MPEG 1 or 2 Video
Duration : 1h 46mn
Bit rate mode : Variable
Maximum bit rate : 40.0 Mbps
Width : 1 920 pixels
Height : 1 080 pixels
Display aspect ratio : 16:9
Frame rate mode : Constant
Frame rate : 23.976 fps
Color space : YUV
Chroma subsampling : 4:2:0
Bit depth : 8 bits
Compression mode : Lossy
Time code of first frame : 00:00:00:00
Time code source : Group of pictures header
Title : MPEG-2 Video 1920x1080@23.976 21061 kbps 1080p / 23,976 fps / 16:9
Language : English
Default : Yes
Forced : No
Audio #1
ID : 2
Format : DTS
Format/Info : Digital Theater Systems
Mode : 16
Format settings, Endianness : Big
Codec ID : A_DTS
Duration : 1h 46mn
Bit rate mode : Constant
Bit rate : 755 Kbps
Channel count : 6 channels
Channel positions : Front: L C R, Side: L R, LFE
Sampling rate : 48.0 KHz
Bit depth : 24 bits
Compression mode : Lossy
Stream size : 576 MiB (3%)
Title : MVO Russian DTS 768 kBit/s 48 kHz 5.1
Language : Russian
Default : Yes
Forced : No
Audio #2
ID : 3
Format : DTS
Format/Info : Digital Theater Systems
Format profile : MA / Core
Mode : 16
Format settings, Endianness : Big
Codec ID : A_DTS
Duration : 1h 46mn
Bit rate mode : Variable
Bit rate : Unknown / 768 Kbps
Channel count : 6 channels
Channel positions : Front: L C R, Side: L R, LFE
Sampling rate : 48.0 KHz
Bit depth : 24 bits
Compression mode : Lossless / Lossy
Title : English DTS-HD MA 1911 kbps 5.1 / 48 kHz / 1911 kbps / 24-bit (DTS Core: 5.1 / 48 kHz / 768 kbps / 24-bit)
Language : English
Default : No
Forced : No
Audio #3
ID : 4
Format : AC-3
Format/Info : Audio Coding 3
Mode extension : CM (complete main)
Format settings, Endianness : Big
Codec ID : A_AC3
Duration : 1h 46mn
Bit rate mode : Constant
Bit rate : 224 Kbps
Channel count : 2 channels
Channel positions : Front: L R
Sampling rate : 48.0 KHz
Bit depth : 16 bits
Compression mode : Lossy
Stream size : 171 MiB (1%)
Title : Commentary Dolby Digital Audio 2.0 / 48 kHz / 224 kbps / DN -4dB
Language : English
Default : No
Forced : No
Text #1
ID : 5
Format : UTF-8
Codec ID : S_TEXT/UTF8
Codec ID/Info : UTF-8 Plain Text
Language : Russian
Default : No
Forced : No
Text #2
ID : 6
Format : ASS
Codec ID : S_TEXT/ASS
Codec ID/Info : Advanced Sub Station Alpha
Compression mode : Lossless
Language : English
Default : No
Forced : No
Скачать

Скачать торрент!

Как скачивать? · Что такое торрент? · Рейтинг и ограничения

Сайт не распространяет и не хранит электронные версии произведений, а лишь предоставляет доступ к создаваемому пользователями каталогу ссылок на торрент-файлы, которые содержат только списки хеш-сумм

[Профиль] [ЛС]
Показать сообщения:    
Ответить на тему

Текущее время: Сегодня 16:29

Часовой пояс: GMT + 4



Вы не можете начинать темы
Вы не можете отвечать на сообщения
Вы не можете редактировать свои сообщения
Вы не можете удалять свои сообщения
Вы не можете голосовать в опросах
Вы не можете прикреплять файлы к сообщениям
Вы не можете скачивать файлы