Кармен (Александр Хван) [2003, Драма, Мелодрама, DVDRip-AVC]

Ответить на тему
 
Автор Сообщение

user ®

Стаж: 7 лет 7 месяцев

Сообщений: 20008

Пост Пост: #1 от 01-Фев-2014 16:05

[Цитировать]

Кармен- Жанр: Драма, Криминал
Год выпуска: 2003
Продолжительность: 01:48:46-Режиссер: Александр Хван
В ролях: Игорь Петренко, Ольга Филиппова, Ярослав Бойко, Александр Шейн, Рамиль Сабитов, Алексей Горбунов, Василий Седых, Олег Кассин, Валерий Шитовалов, Максим Аверин и др.-Описание: Он — примерный сотрудник милиции, честный и исполнительный, «правильный», как с плаката, скоро будет повышен по службе… Она — заключенная, отрабатывающая свой срок на табачной фабрике, прозванная за дикий и непокорный нрав «Кармен»…
Роковая встреча девушки и охранника меняет их жизни раз и навсегда. И это даже не история любви, не еще один фильм о «мужчине и женщине», это история настоящей страсти, страсти на грани между свободой и смертью.- -Автор: AngelOfTrue--Качество видео: DVDRip-AVC
Формат видео: MKV
Видео: 706x400@772x400, 25 fps, x264 ~2260 kbps avg, 0.320 bit/pixel
Аудио: AC3 Dolby Digital / 48 KHz / 448 kbps / 3/2 (L,C,R,l,r) + LFE ch

-

x264 log

avs [info]: 706x400p 12:11 @ 25/1 fps (cfr)
x264 [info]: frame I:1034 Avg QP:17.01 size: 44248 PSNR Mean Y:46.32 U:49.50 V:50.04 Avg:47.17 Global:46.23
x264 [info]: frame P:33534 Avg QP:19.33 size: 21344 PSNR Mean Y:44.04 U:48.13 V:48.79 Avg:45.05 Global:43.98
x264 [info]: frame B:128595 Avg QP:20.49 size: 8413 PSNR Mean Y:43.33 U:47.95 V:48.82 Avg:44.42 Global:43.20
x264 [info]: consecutive B-frames: 1.1% 1.5% 4.3% 33.7% 15.4% 20.7% 7.7% 9.3% 3.6% 1.4% 0.2% 0.2% 0.2% 0.3% 0.3%
x264 [info]: mb I I16..4: 3.3% 84.3% 12.4%
x264 [info]: mb P I16..4: 0.5% 18.2% 1.4% P16..4: 25.7% 32.0% 16.6% 1.5% 0.1% skip: 3.8%
x264 [info]: mb B I16..4: 0.1% 2.3% 0.2% B16..8: 30.0% 24.9% 5.3% direct:11.0% skip:26.3% L0:39.6% L1:37.4% BI:23.0%
x264 [info]: 8x8 transform intra:88.8% inter:62.3%
x264 [info]: direct mvs spatial:97.6% temporal:2.4%
x264 [info]: coded y,uvDC,uvAC intra: 91.7% 90.0% 63.1% inter: 42.3% 32.7% 9.7%
x264 [info]: i16 v,h,dc,p: 26% 20% 8% 46%
x264 [info]: i8 v,h,dc,ddl,ddr,vr,hd,vl,hu: 12% 12% 9% 8% 11% 11% 11% 12% 14%
x264 [info]: i4 v,h,dc,ddl,ddr,vr,hd,vl,hu: 11% 27% 5% 6% 11% 11% 10% 8% 11%
x264 [info]: i8c dc,h,v,p: 34% 26% 23% 18%
x264 [info]: Weighted P-Frames: Y:8.9% UV:5.2%
x264 [info]: ref P L0: 36.7% 10.8% 16.1% 8.5% 6.5% 5.2% 4.3% 2.8% 2.4% 2.1% 1.7% 1.5% 1.2% 0.1% 0.0%
x264 [info]: ref B L0: 70.7% 12.1% 5.4% 3.0% 2.3% 1.8% 1.5% 1.0% 0.8% 0.7% 0.4% 0.2%
x264 [info]: ref B L1: 94.8% 5.2%
x264 [info]: SSIM Mean Y:0.9811656 (17.250db)
x264 [info]: PSNR Mean Y:43.495 U:47.998 V:48.823 Avg:44.570 Global:43.367 kb/s:2259.56

-

MediaInfo

Формат : Matroska
Версия формата : Version 4 / Version 2
Размер файла : 2,06 Гбайт
Продолжительность : 1 ч. 48 м.
Общий поток : 2709 Кбит/сек
Дата кодирования : UTC 2014-02-01 07:55:51
Программа кодирования : mkvmerge v6.1.0 ('Old Devil') built on Mar 4 2013 09:10:42
Библиотека кодирования : libebml v1.3.0 + libmatroska v1.4.0
Видео
Идентификатор : 1
Формат : AVC
Формат/Информация : Advanced Video Codec
Профиль формата : High@L3.1
Параметр CABAC формата : Да
Параметр ReFrames формата : 13 кадров
Идентификатор кодека : V_MPEG4/ISO/AVC
Продолжительность : 1 ч. 48 м.
Битрейт : 2260 Кбит/сек
Ширина : 706 пикселей
Высота : 400 пикселей
Соотношение сторон : 1,925
Режим частоты кадров : Постоянный
Частота кадров : 25,000 кадров/сек
Цветовое пространство : YUV
Субдискретизация насыщенности : 4:2:0
Битовая глубина : 8 бит
Тип развёртки : Прогрессивная
Бит/(Пиксели*Кадры) : 0.320
Размер потока : 1,68 Гбайт (81%)
Заголовок : Karmen.2003.RUS.DVDRip-AVC.AC3.-AngelOfTrue
Библиотека кодирования : x264 core 140 r2377kMod 1ca7bb9
Настройки программы : cabac=1 / ref=13 / deblock=1:-2:-1 / analyse=0x3:0x133 / me=umh / subme=11 / psy=1 / fade_compensate=0.00 / psy_rd=1.00:0.00 / mixed_ref=1 / me_range=32 / chroma_me=1 / trellis=2 / 8x8dct=1 / cqm=0 / deadzone=21,11 / fast_pskip=0 / chroma_qp_offset=-2 / threads=6 / lookahead_threads=1 / sliced_threads=0 / nr=0 / decimate=0 / interlaced=0 / bluray_compat=0 / constrained_intra=0 / fgo=0 / bframes=14 / b_pyramid=2 / b_adapt=2 / b_bias=0 / direct=3 / weightb=1 / open_gop=0 / weightp=2 / keyint=250 / keyint_min=25 / scenecut=40 / intra_refresh=0 / rc=2pass / mbtree=0 / bitrate=2260 / ratetol=1.0 / qcomp=0.65 / qpmin=0 / qpmax=69 / qpstep=4 / cplxblur=20.0 / qblur=0.5 / ip_ratio=1.35 / pb_ratio=1.25 / aq=2:1.00
Язык : Russian
Default : Да
Forced : Нет
Основные цвета : BT.601 PAL
Характеристики трансфера : BT.470 System B, BT.470 System G
Коэффициенты матрицы : BT.601
Аудио
Идентификатор : 2
Формат : AC-3
Формат/Информация : Audio Coding 3
Расширение режима : CM (complete main)
Параметр Endianness формата : Big
Идентификатор кодека : A_AC3
Продолжительность : 1 ч. 48 м.
Вид битрейта : Постоянный
Битрейт : 448 Кбит/сек
Каналы : 6 каналов
Расположение каналов : Front: L C R, Side: L R, LFE
Частота : 48,0 КГц
Битовая глубина : 16 бит
Метод сжатия : С потерями
Размер потока : 349 Мбайт (17%)
Заголовок : Original (Russian)
Язык : Russian
Default : Да
Forced : Нет

-

Скриншоты (анаморф)


Скачать

Скачать торрент!

Как скачивать? · Что такое торрент? · Рейтинг и ограничения

Сайт не распространяет и не хранит электронные версии произведений, а лишь предоставляет доступ к создаваемому пользователями каталогу ссылок на торрент-файлы, которые содержат только списки хеш-сумм

[Профиль] [ЛС]
Показать сообщения:    
Ответить на тему

Текущее время: Сегодня 04:26

Часовой пояс: GMT + 4



Вы не можете начинать темы
Вы не можете отвечать на сообщения
Вы не можете редактировать свои сообщения
Вы не можете удалять свои сообщения
Вы не можете голосовать в опросах
Вы не можете прикреплять файлы к сообщениям
Вы не можете скачивать файлы