Во имя короля 3 / In the Name of the King III (Уве Болл / Uwe Boll) [2014, Канада, Болгария, боевик, драма, приключения, DVDRip] VO (Vano)

Ответить на тему
 
Автор Сообщение

user ®

Стаж: 7 лет 7 месяцев

Сообщений: 20008

Пост Пост: #1 от 01-Фев-2014 12:55

[Цитировать]

Во имя короля 3 / In the Name of the King III
Страна: Канада, Болгария, Event Film Distribution
Жанр: Боевик, драма, приключения
Год выпуска: 2014
Продолжительность: 01:25:05
Перевод: Любительский (одноголосый) [VANO]
Cубтитры: нет
Оригинальная аудиодорожка: нет
Режиссер: Уве Болл / Uwe Boll
В ролях: Доминик Пёрселл, Ралитса Паскалева, Башар Рахаль, Николай Сотиров, Петра Гочева, Ян Михайлов, Шелли Варод, Явор Веселинов, Татьяна Педерсен, Фахрадин Фахрадинов и др.
Описание: Однажды появляется неизвестный странник в необычном одеянии — человек в странной экипировке, неустанно твердящий, что он «не из этих мест». Так начинается необыкновенная история, на прочно связавшая друг с другом путешествия во времени и в пространстве, грандиозные сражения и героические подвиги, волшебство и древнюю магию, пророчества и их чудесное воплощение в реальность…

Качество видео: DVDRip
Формат видео: AVI
Видео: XviD, NTSC 23.976, 720x400, 2039 кбит/с
Аудио: MP3, 44.1 KHz, 2 ch, 256 Kbps

MediaInfo

General
Complete name : F:\BD torrent\DVDRIPS\Vo.imja.korolja.3.2014.L1.DVDRip.1400MB.avi
Format : AVI
Format/Info : Audio Video Interleave
File size : 1.37 GiB
Duration : 1h 25mn
Overall bit rate : 2 304 Kbps
Writing application : VirtualDubMod 1.5.10.2 (build 2540/release)
Writing library : VirtualDubMod build 2540/release
Video
ID : 0
Format : MPEG-4 Visual
Format profile : Advanced Simple@L5
Format settings, BVOP : 2
Format settings, QPel : No
Format settings, GMC : No warppoints
Format settings, Matrix : Default (MPEG)
Codec ID : XVID
Codec ID/Hint : XviD
Duration : 1h 25mn
Bit rate : 2 039 Kbps
Width : 720 pixels
Height : 400 pixels
Display aspect ratio : 16:9
Frame rate : 23.976 fps
Color space : YUV
Chroma subsampling : 4:2:0
Bit depth : 8 bits
Scan type : Progressive
Compression mode : Lossy
Bits/(Pixel*Frame) : 0.295
Stream size : 1.21 GiB (88%)
Writing library : XviD 1.2.1 (UTC 2008-12-04)
Audio
ID : 1
Format : MPEG Audio
Format version : Version 1
Format profile : Layer 3
Codec ID : 55
Codec ID/Hint : MP3
Duration : 1h 25mn
Bit rate mode : Constant
Bit rate : 256 Kbps
Channel(s) : 2 channels
Sampling rate : 44.1 KHz
Compression mode : Lossy
Stream size : 156 MiB (11%)
Alignment : Split accross interleaves
Interleave, duration : 42 ms (1.00 video frame)
Interleave, preload duration : 500 ms

Скриншот c названием фильма

Скриншоты

Скачать

Скачать торрент!

Как скачивать? · Что такое торрент? · Рейтинг и ограничения

Сайт не распространяет и не хранит электронные версии произведений, а лишь предоставляет доступ к создаваемому пользователями каталогу ссылок на торрент-файлы, которые содержат только списки хеш-сумм

[Профиль] [ЛС]
Показать сообщения:    
Ответить на тему

Текущее время: Сегодня 02:26

Часовой пояс: GMT + 4



Вы не можете начинать темы
Вы не можете отвечать на сообщения
Вы не можете редактировать свои сообщения
Вы не можете удалять свои сообщения
Вы не можете голосовать в опросах
Вы не можете прикреплять файлы к сообщениям
Вы не можете скачивать файлы