Новые похождения Швейка (Сергей Юткевич) [1843, Комедия, DVDRip]

Ответить на тему
 
Автор Сообщение

user ®

Стаж: 7 лет 7 месяцев

Сообщений: 20008

Пост Пост: #1 от 31-Янв-2014 07:20

[Цитировать]

Новые похождения Швейка
Жанр: Комедия
Год выпуска: 1843
Продолжительность: 01:06:33
Режиссёр: Сергей Юткевич
В ролях: Борис Тенин... Швейк
Сергей Филиппов... ефрейтор
Сергей Мартинсон... Гитлер
Нина Никитина... Христина
Фаина Раневская... тётя Адель
Павел Шпрингфельд... Марко
Павел Суханов... повар
Сергей Троицкий... итальянец
Алексей Савостьянов... штурмовщик
Описание: Йозеф Швейк сбежал из тюрьмы и мобилизовался в армию на Балканы, где действует карательный отряд.
Без сомнения и страха он старается помочь партизанам, придумывая хитроумные способы расправы над
Гитлером.
Сэмпл: http://www.sendspace.com/file/u3hfxe
Качество видео: DVDRip
Формат видео: AVI
Видео: 672x512 (1.31:1), 25 fps, 1199 kbps
Аудио: 48 kHz, AC3 Dolby Digital, 2/0 (L,R) ch, 256.00 kbps

MediaInfo

I:\Новые похождения Швейка\1943.Похождения Швейка.avi
General
Complete name : I:\Новые похождения Швейка\1943.Похождения Швейка.avi
Format : AVI
Format/Info : Audio Video Interleave
File size : 697 MiB
Duration : 1h 6mn
Overall bit rate : 1 465 Kbps
Writing application : VirtualDubMod 1.5.10.2 (build 2540/release)
Writing library : VirtualDubMod build 2540/release
Video #0
ID : 0
Format : MPEG-4 Visual
Format profile : Advanced Simple@L5
Format settings, BVOP : 2
Format settings, QPel : No
Format settings, GMC : No warppoints
Format settings, Matrix : Default (H.263)
Muxing mode : Packed bitstream
Codec ID : XVID
Codec ID/Hint : XviD
Duration : 1h 6mn
Bit rate : 1 199 Kbps
Width : 672 pixels
Height : 512 pixels
Display aspect ratio : 4:3
Frame rate : 25.000 fps
Color space : YUV
Chroma subsampling : 4:2:0
Bit depth : 8 bits
Scan type : Progressive
Compression mode : Lossy
Bits/(Pixel*Frame) : 0.139
Stream size : 571 MiB (82%)
Writing library : XviD 1.0.3 (UTC 2004-12-20)
Audio #1
ID : 1
Format : AC-3
Format/Info : Audio Coding 3
Mode extension : CM (complete main)
Format settings, Endianness : Big
Codec ID : 2000
Duration : 1h 6mn
Bit rate mode : Constant
Bit rate : 256 Kbps
Channel count : 2 channels
Channel positions : Front: L R
Sampling rate : 48.0 KHz
Bit depth : 16 bits
Compression mode : Lossy
Stream size : 122 MiB (17%)
Alignment : Split accross interleaves
Interleave, duration : 40 ms (1.00 video frame)
Interleave, preload duration : 500 ms

Скриншот c названием фильма

Скриншоты

Скачать

Скачать торрент!

Как скачивать? · Что такое торрент? · Рейтинг и ограничения

Сайт не распространяет и не хранит электронные версии произведений, а лишь предоставляет доступ к создаваемому пользователями каталогу ссылок на торрент-файлы, которые содержат только списки хеш-сумм

[Профиль] [ЛС]
Показать сообщения:    
Ответить на тему

Текущее время: Сегодня 12:10

Часовой пояс: GMT + 4



Вы не можете начинать темы
Вы не можете отвечать на сообщения
Вы не можете редактировать свои сообщения
Вы не можете удалять свои сообщения
Вы не можете голосовать в опросах
Вы не можете прикреплять файлы к сообщениям
Вы не можете скачивать файлы