Отпуск / Каникулы / Holiday / Holli-dei (Ян Юн Хо / Yun-ho Yang) [2006, Южная Корея, боевик, драма, криминал, DVDRip] DVO (DeadSno & den904)

Ответить на тему
 
Автор Сообщение

user ®

Стаж: 11 лет

Сообщений: 15151

Пост Пост: #1 от 31-Янв-2014 01:00

[Цитировать]

Отпуск / Каникулы / Holiday / Holli-dei
Страна: Южная Корея
Жанр: боевик, драма, криминал
Год выпуска: 2006
Продолжительность: 02:01:53
Перевод: Любительский (двухголосый закадровый) [DeadSno & den904]
Cубтитры: нет
Оригинальная аудиодорожка: корейский
Режиссер: Ян Юн Хо / Yun-ho Yang
В ролях: Ли Сон Джэ, Чхве Мин Су, Хьюн Донг, Чан Се Чжин, Эн Джо, Пон-гю Ли, Ёл Ли, Ли Хён У, Ён-тон Мун, Ён-ро Пак
Описание: Фильм снят по реальным событиям произошедшим в Корее в октябре 1988 года. Тогда 12 заключенных сумели бежать из перевозившего их автозэка, захватив с собой оружие с полным боекомплектом припасов. 6 человек вскоре были пойманы полицией, остальные же, включая Чи, сумели ускользнуть от стражей порядка и на протяжении 9 дней, взяв в заложники свои же собственные семьи, укрывались в доме одного из заключенных...
Сэмпл: http://multi-up.com/945788
Качество видео: DVDRip
Формат видео: AVI
Видео: 640x336 (1.90:1), 23.976 fps, XviD MPEG-4 ~1150 kbps avg, 0.22 bit/pixel
Аудио 1: 48 kHz, AC3 Dolby Digital, 3/2 (L,C,R,l,r) + LFE ch, ~448 kbps - DVO
Аудио 2: 48 kHz, AC3 Dolby Digital, 3/2 (L,C,R,l,r) + LFE ch, ~448 kbps - Original

MediaInfo

General
Complete name : Holiday.2006.avi
Format : AVI
Format/Info : Audio Video Interleave
File size : 1.75 GiB
Duration : 2h 1mn
Overall bit rate : 2 061 Kbps
Writing application : VirtualDubMod 1.5.10.2 (build 2542/release)
Writing library : VirtualDubMod build 2542/release
Video
ID : 0
Format : MPEG-4 Visual
Format profile : Advanced Simple@L5
Format settings, BVOP : 2
Format settings, QPel : No
Format settings, GMC : No warppoints
Format settings, Matrix : Default (H.263)
Muxing mode : Packed bitstream
Codec ID : XVID
Codec ID/Hint : XviD
Duration : 2h 1mn
Bit rate : 1 151 Kbps
Width : 640 pixels
Height : 336 pixels
Display aspect ratio : 1.905
Frame rate : 23.976 fps
Color space : YUV
Chroma subsampling : 4:2:0
Bit depth : 8 bits
Scan type : Progressive
Compression mode : Lossy
Bits/(Pixel*Frame) : 0.223
Stream size : 1 003 MiB (56%)
Writing library : XviD 1.1.0 (UTC 2005-11-22)
Audio #1
ID : 1
Format : AC-3
Format/Info : Audio Coding 3
Mode extension : CM (complete main)
Format settings, Endianness : Big
Codec ID : 2000
Duration : 2h 1mn
Bit rate mode : Constant
Bit rate : 448 Kbps
Channel count : 6 channels
Channel positions : Front: L C R, Side: L R, LFE
Sampling rate : 48.0 KHz
Bit depth : 16 bits
Compression mode : Lossy
Stream size : 391 MiB (22%)
Alignment : Split accross interleaves
Interleave, duration : 42 ms (1.00 video frame)
Interleave, preload duration : 500 ms
Audio #2
ID : 2
Format : AC-3
Format/Info : Audio Coding 3
Mode extension : CM (complete main)
Format settings, Endianness : Big
Codec ID : 2000
Duration : 2h 1mn
Bit rate mode : Constant
Bit rate : 448 Kbps
Channel count : 6 channels
Channel positions : Front: L C R, Side: L R, LFE
Sampling rate : 48.0 KHz
Bit depth : 16 bits
Compression mode : Lossy
Stream size : 391 MiB (22%)
Alignment : Split accross interleaves
Interleave, duration : 42 ms (1.00 video frame)
Interleave, preload duration : 500 ms

Скриншоты

Скачать

Скачать торрент! Отпуск / Каникулы / Holiday / Holli-dei (Ян Юн Хо / Yun-ho Yang) [2006, Южная Корея, боевик, драма, криминал, DVDRip] DVO (DeadSno & den904)

Как скачивать? · Что такое торрент? · Рейтинг и ограничения

Сайт не распространяет и не хранит электронные версии произведений, а лишь предоставляет доступ к создаваемому пользователями каталогу ссылок на торрент-файлы, которые содержат только списки хеш-сумм

[Профиль] [ЛС]
Показать сообщения:    
Ответить на тему

Текущее время: Сегодня 15:52

Часовой пояс: GMT + 4



Вы не можете начинать темы
Вы не можете отвечать на сообщения
Вы не можете редактировать свои сообщения
Вы не можете удалять свои сообщения
Вы не можете голосовать в опросах
Вы не можете прикреплять файлы к сообщениям
Вы не можете скачивать файлы