Смерть ей к лицу / Death Becomes Her (Роберт Земекис / Robert Zemeckis) [1992, США, фантастика, комедия, BDRip 720p] 2х DVO + MVO (НТВ+) + AVO (Михалев) + Sub Rus, Eng + Original Eng

Ответить на тему
 
Автор Сообщение

user ®

Стаж: 7 лет 7 месяцев

Сообщений: 20008

Пост Пост: #1 от 31-Янв-2014 01:00

[Цитировать]

Смерть ей к лицуDeath Becomes Her Страна: США
Жанр: фантастика, комедия
Год выпуска: 1992
Продолжительность: 01:43:28
Перевод: Профессиональный (двухголосый закадровый) ОРТ
Перевод 2: Профессиональный (двухголосый закадровый) Премьер Видео Фильм
Перевод 3: Профессиональный (многоголосый закадровый) НТВ+
Перевод 4: Авторский (одноголосый закадровый) Алексей Михалёв
Cубтитры: русские, английские
Оригинальная аудиодорожка: английский
Режиссер: Роберт Земекис / Robert Zemeckis
В ролях: Мэрил Стрип, Брюс Уиллис, Голди Хоун, Изабелла Росселлини, Иан Огилви, Адам Сторке, Нэнси Фиш, Алайна Рид Холл, Мишель Джонсон, Мэри Эллен Трейнор
Описание: Эликсир вечной молодости! Сколько женщин мечтают о нем! О нем мечтали и бродвейская звезда Мэдлин Эштон, и Хелен Шарп, у которой эта коварная Мэдлин отбила жениха Эрнеста Мэнвилла, гениального врача-специалиста по пластическим операциям.
Прошли годы, и изрядно полинявшие и уставшие друг от друга дамочки, обращаются за чудотворным снадобьем к некоей колдунье. Итак, эликсир выпит, кожа посвежела, груди подтянулись, но скоро качество лекарства будет проверено… смертью.
Сэмпл: http://yadi.sk/d/QEFyIjk8GhHAU
Сравнение с исходником : http://screenshotcomparison.com/comparison/59236
Тип релиза: BDRip 720p
Контейнер: MKV
Видео: AVC, 11650 Kбит/с, 1280x692, 23,976 fps
Аудио: Русский: AC3, 2/0 (L,R) ch, 48 kHz, ~192kbps |Двухголосый закадровый, ОРТ|
Аудио 2: Русский: AC3, 2/0 (L,R) ch, 48 kHz, ~192kbps |Двухголосый закадровый, Премьер Видео Фильм|
Аудио 3: Русский: AC3, 2/0 (L,R) ch, 48 kHz, ~192kbps |Многоголосый закадровый, НТВ+|
Аудио 4: Русский: DTS, 2/0 (L,R) ch, 48 kHz, ~1509kbps |Одноголосый закадровый, А.Михалёв|
Аудио 5: Английский: DTS, 2/0 (L,R) ch, 48 kHz, ~1509kbps
Формат субтитров: softsub (SRT)

Дополнительно:

  • Сохранены оригинальные чаптеры как на Blu-ray.
  • Дорожка №4 получена наложением чистого голоса на оригинал.
  • Синхронизация дорожек и наложения голоса А.Михалева - Anoobis, за что ему большое спасибо !

MediaInfo + Лог

Лог:
Information: Standard error stream
- avs : 1280x692p 1:1 @ 24000/1001 fps (cfr)
- x264 : using SAR=1/1
- x264 : using cpu capabilities: MMX2 SSE2Fast SSSE3 SSE4.2 AVX
- x264 : profile High, level 4.1
- x264 : frame I:1029 Avg QP:14.83 size:142496
- x264 : frame P:30001 Avg QP:16.35 size: 84422
- x264 : frame B:117818 Avg QP:17.92 size: 53951
- x264 : consecutive B-frames: 1.4% 1.7% 4.8% 18.6% 17.4% 42.8% 8.0% 2.2% 1.6% 0.8% 0.6%
- x264 : mb I I16..4: 5.0% 81.8% 13.2%
- x264 : mb P I16..4: 0.2% 32.2% 2.7% P16..4: 18.0% 25.1% 13.8% 1.5% 0.1% skip: 6.5%
- x264 : mb B I16..4: 0.0% 7.6% 0.7% B16..8: 30.9% 29.0% 9.5% direct:13.3% skip: 8.9% L0:40.2% L1:35.4% BI:24.4%
- x264 : 8x8 transform intra:91.0% inter:57.6%
- x264 : direct mvs spatial:94.6% temporal:5.4%
- x264 : coded y,uvDC,uvAC intra: 95.3% 96.1% 88.6% inter: 72.4% 56.7% 16.9%
- x264 : i16 v,h,dc,p: 72% 9% 7% 11%
- x264 : i8 v,h,dc,ddl,ddr,vr,hd,vl,hu: 11% 7% 10% 10% 14% 13% 11% 12% 12%
- x264 : i4 v,h,dc,ddl,ddr,vr,hd,vl,hu: 44% 4% 9% 6% 9% 9% 7% 7% 7%
- x264 : i8c dc,h,v,p: 52% 17% 16% 15%
- x264 : Weighted P-Frames: Y:7.5% UV:3.5%
- x264 : ref P L0: 35.4% 11.1% 19.9% 9.1% 7.8% 5.3% 5.0% 3.0% 3.0% 0.4% 0.0%
- x264 : ref B L0: 71.8% 12.5% 6.0% 3.5% 2.5% 2.1% 1.1% 0.4%
- x264 : ref B L1: 93.6% 6.4%
- x264 : kb/s:11643.59
- encoded 148848 frames, 2.83 fps, 11643.59 kb/s

Общее
Уникальный идентификатор : 196885501398044024459656403766737748945 (0x941EC4ADB95C0AF590C997331CEDC3D1)
Полное имя : D:\торрент\Smert.ej.k.licu.1992.BDRip.720p.mkv
Формат : Matroska
Версия формата : Version 4 / Version 2
Размер файла : 11,0 Гбайт
Продолжительность : 1 ч. 43 м.
Общий поток : 15,2 Мбит/сек
Дата кодирования : UTC 2014-01-25 12:57:39
Программа кодирования : mkvmerge v6.7.0 ('Back to the Ground') 32bit built on Jan 11 2014 19:18:54
Библиотека кодирования : libebml v1.3.0 + libmatroska v1.4.1
Видео
Идентификатор : 1
Формат : AVC
Формат/Информация : Advanced Video Codec
Профиль формата : High@L4.1
Параметр CABAC формата : Да
Параметр ReFrames формата : 9 кадров
Идентификатор кодека : V_MPEG4/ISO/AVC
Продолжительность : 1 ч. 43 м.
Битрейт : 11,6 Мбит/сек
Ширина : 1280 пикселей
Высота : 692 пикселя
Соотношение сторон : 1,85:1
Режим частоты кадров : Постоянный
Частота кадров : 23,976 кадра/сек
Цветовое пространство : YUV
Субдискретизация насыщенности : 4:2:0
Битовая глубина : 8 бит
Тип развёртки : Прогрессивная
Бит/(Пиксели*Кадры) : 0.549
Размер потока : 8,20 Гбайт (74%)
Библиотека кодирования : x264 core 140 r2377 1ca7bb9
Настройки программы : cabac=1 / ref=9 / deblock=1:-3:-3 / analyse=0x3:0x133 / me=umh / subme=11 / psy=1 / psy_rd=1.00:0.00 / mixed_ref=1 / me_range=24 / chroma_me=1 / trellis=2 / 8x8dct=1 / cqm=0 / deadzone=21,11 / fast_pskip=1 / chroma_qp_offset=-2 / threads=6 / lookahead_threads=1 / sliced_threads=0 / nr=0 / decimate=1 / interlaced=0 / bluray_compat=0 / constrained_intra=0 / bframes=10 / b_pyramid=2 / b_adapt=2 / b_bias=0 / direct=3 / weightb=1 / open_gop=0 / weightp=2 / keyint=240 / keyint_min=24 / scenecut=40 / intra_refresh=0 / rc_lookahead=40 / rc=2pass / mbtree=0 / bitrate=11650 / ratetol=1.0 / qcomp=0.70 / qpmin=0 / qpmax=69 / qpstep=4 / cplxblur=20.0 / qblur=0.5 / vbv_maxrate=50000 / vbv_bufsize=62500 / nal_hrd=none / filler=0 / ip_ratio=1.30 / pb_ratio=1.20 / aq=1:0.80
Язык : English
Default : Да
Forced : Нет
Основные цвета : BT.709
Характеристики трансфера : BT.709
Коэффициенты матрицы : BT.709
Аудио #1
Идентификатор : 2
Формат : AC-3
Формат/Информация : Audio Coding 3
Расширение режима : CM (complete main)
Параметр Endianness формата : Big
Идентификатор кодека : A_AC3
Продолжительность : 1 ч. 43 м.
Вид битрейта : Постоянный
Битрейт : 192 Кбит/сек
Каналы : 2 канала
Расположение каналов : Front: L R
Частота : 48,0 КГц
Битовая глубина : 16 бит
Метод сжатия : С потерями
Размер потока : 142 Мбайт (1%)
Заголовок : DVO - OPT
Язык : Russian
Default : Да
Forced : Нет
Аудио #2
Идентификатор : 3
Формат : AC-3
Формат/Информация : Audio Coding 3
Расширение режима : CM (complete main)
Параметр Endianness формата : Big
Идентификатор кодека : A_AC3
Продолжительность : 1 ч. 43 м.
Вид битрейта : Постоянный
Битрейт : 192 Кбит/сек
Каналы : 2 канала
Расположение каналов : Front: L R
Частота : 48,0 КГц
Битовая глубина : 16 бит
Метод сжатия : С потерями
Размер потока : 142 Мбайт (1%)
Заголовок : DVO - Primier
Язык : Russian
Default : Нет
Forced : Нет
Аудио #3
Идентификатор : 4
Формат : AC-3
Формат/Информация : Audio Coding 3
Расширение режима : CM (complete main)
Параметр Endianness формата : Big
Идентификатор кодека : A_AC3
Продолжительность : 1 ч. 43 м.
Вид битрейта : Постоянный
Битрейт : 192 Кбит/сек
Каналы : 2 канала
Расположение каналов : Front: L R
Частота : 48,0 КГц
Битовая глубина : 16 бит
Метод сжатия : С потерями
Размер потока : 142 Мбайт (1%)
Заголовок : MVO - HTB+
Язык : Russian
Default : Нет
Forced : Нет
Аудио #4
Идентификатор : 5
Формат : DTS
Формат/Информация : Digital Theater Systems
Режим : 16
Параметр Endianness формата : Big
Идентификатор кодека : A_DTS
Продолжительность : 1 ч. 43 м.
Вид битрейта : Постоянный
Битрейт : 1509 Кбит/сек
Каналы : 2 канала
Расположение каналов : Front: L R
Частота : 48,0 КГц
Битовая глубина : 24 бит
Метод сжатия : С потерями
Размер потока : 1,09 Гбайт (10%)
Заголовок : AVO - А.Михалев
Язык : Russian
Default : Нет
Forced : Нет
Аудио #5
Идентификатор : 6
Формат : DTS
Формат/Информация : Digital Theater Systems
Режим : 16
Параметр Endianness формата : Big
Идентификатор кодека : A_DTS
Продолжительность : 1 ч. 43 м.
Вид битрейта : Постоянный
Битрейт : 1509 Кбит/сек
Каналы : 2 канала
Расположение каналов : Front: L R
Частота : 48,0 КГц
Битовая глубина : 16 бит
Метод сжатия : С потерями
Размер потока : 1,09 Гбайт (10%)
Язык : English
Default : Нет
Forced : Нет
Текст #1
Идентификатор : 7
Формат : UTF-8
Идентификатор кодека : S_TEXT/UTF8
Идентификатор кодека/Информация : UTF-8 Plain Text
Язык : Russian
Default : Нет
Forced : Нет
Текст #2
Идентификатор : 8
Формат : UTF-8
Идентификатор кодека : S_TEXT/UTF8
Идентификатор кодека/Информация : UTF-8 Plain Text
Язык : English
Default : Нет
Forced : Нет
Меню
00:00:00.000 : en:00:00:00.000
00:05:04.513 : en:00:05:04.513
00:09:01.541 : en:00:09:01.541
00:12:35.380 : en:00:12:35.380
00:20:40.739 : en:00:20:40.739
00:26:46.772 : en:00:26:46.772
00:30:20.110 : en:00:30:20.110
00:47:09.243 : en:00:47:09.243
00:55:55.269 : en:00:55:55.269
01:05:51.489 : en:01:05:51.489
01:09:55.858 : en:01:09:55.858
01:15:40.953 : en:01:15:40.953
01:25:01.888 : en:01:25:01.888
01:32:54.402 : en:01:32:54.402
01:36:13.226 : en:01:36:13.226
01:37:35.600 : en:01:37:35.600

Скриншоты

Скачать

Скачать торрент!

Как скачивать? · Что такое торрент? · Рейтинг и ограничения

Сайт не распространяет и не хранит электронные версии произведений, а лишь предоставляет доступ к создаваемому пользователями каталогу ссылок на торрент-файлы, которые содержат только списки хеш-сумм

[Профиль] [ЛС]
Показать сообщения:    
Ответить на тему

Текущее время: Сегодня 19:35

Часовой пояс: GMT + 4



Вы не можете начинать темы
Вы не можете отвечать на сообщения
Вы не можете редактировать свои сообщения
Вы не можете удалять свои сообщения
Вы не можете голосовать в опросах
Вы не можете прикреплять файлы к сообщениям
Вы не можете скачивать файлы