Вулкан / Volcano (Мик Джексон / Mick Jackson) [1997, США, фантастика, боевик, триллер, катастрофа, BDRemux 1080p] Dub (Нева 1) + 2x MVO + 2x AVO (Живов, Визгунов) + Sub Rus, Eng + Original Eng

Ответить на тему
 
Автор Сообщение

user ®

Стаж: 7 лет 7 месяцев

Сообщений: 20008

Пост Пост: #1 от 31-Янв-2014 01:00

[Цитировать]

Вулкан / Volcano- -Страна: США
Жанр: катастрофа
Год выпуска: 1997
Продолжительность: 01:43:52-Перевод 1: Профессиональный (дублированный) Нева 1
Перевод 2: Профессиональный (многоголосый закадровый)
Перевод 3: Профессиональный (многоголосый закадровый)
Перевод 4: Авторский (одноголосый закадровый) Живов
Перевод 5: Авторский (одноголосый закадровый) Визгунов
Cубтитры: русские, английские
Оригинальная аудиодорожка: английский-Режиссер: Мик Джексон / Mick Jackson
Сценарий: Джером Армстронг, Билли Рэй
Продюсер: Эндрю З. Дэвис, Нил Х. Мориц, Стоукли Чаффин, ...
Оператор: Тео ван де Санде
Композитор: Алан Сильвестри
Художник: Джексон Де Говиа, Уильям Крус, Том Рита, ...
Монтаж: Дон Брошу, Майкл Троник
В ролях: Томми Ли Джонс, Энн Хеч, Габи Хоффманн, Дон Чидл, Жаклин Ким, Кит Дэвид, Джон Корбетт, Майкл Рисполи, Джон Кэрролл Линч, Марселло Тедфорд, Лори Латем, Берт Крамер-Описание: Лос - Анджелес на своем веку достаточно повидал стихийных бедствий: землетрясений, пожаров, наводнений. Но сейчас «городу ангелов» предстоит столкнуться с самой страшной из когда - либо переживаемых им катастроф, которая грозит стереть его с лица земли.
В одном из самых населенных районов Лос - Анджелеса внезапно пришел в активное действие вулкан. Раскаленная, грозящая смертью лава уже начала выплескиваться на улицы, запруженные автомобилями...
Но, как всегда, герой появляется вовремя - на этот раз в облике мужественного офицера службы спасения в случае стихийных бедствий, который возглавляет борьбу со стихией...-

интересные факты

  • Съемки проходили на улицах Лос-Анджелеса, в пустыне Мохава, а также в калифорнийском городке Торранс.
  • Визуальные и компьютерные эффекты в картине применялись в более чем 250 сценах, над которыми работало очень много компаний и художников в области спецэффектов.
  • Почти все сцены на бульваре Уилшер были сняты с помощью декораций в большом павильоне, которые представляли собой точную копию этой улицы чуть меньшего размера и с домами без крыш, которые были «достроены» с помощью компьютерной графики. Взрывы же были настоящие и выполнялись с помощью газа пропана.
  • Лава была сделана из метилцеллюлозы — особого реагента, который используется для сгущения молока быстрого приготовления, а падающая с неба зола — из мелких обрывков серой газетной бумаги.
- -Тип релиза: BDRemux 1080p
Контейнер: MKV
Видео: MPEG-4 AVC Video / 19938 kbps / 1080p / 23.976 fps / 16:9 / High Profile 4.1
Аудио 1: Russian: AC3 192 kBit/s 48 kHz 2.0 DD - Дубляж Нева 1
Аудио 2: Russian: DTS 768 kBit/s 48 kHz 5.1 16 bit - MVO
Аудио 3: Russian: AC3 192 kBit/s 48 kHz 2.0 DD - MVO
Аудио 4: Russian: DTS-HD MA 2470 kBit/s 48 kHz 16 bit (Core: 5.1 / 48 kHz / 1509 kbps / 16 bit) 5.1 - Живов
Аудио 5: Russian: AC3 192 kBit/s 48 kHz 2.0 DD - Визгунов
Аудио 6: English: DTS-HD MA 2162 kBit/s 48 kHz 16 bit (Core: 5.1 / 48 kHz / 768 kbps / 16 bit) 5.1
Формат субтитров: softsub (SRT)-

MediaInfo

General
Unique ID : 170230401682099018939392029865454066460 (0x80112ECC45F29E81A2641BA81DC7DB1C)
Complete name : I:\__R__\Volcano.mkv
Format : Matroska
Format version : Version 4 / Version 2
File size : 18.8 GiB
Duration : 1h 43mn
Overall bit rate mode : Variable
Overall bit rate : 25.9 Mbps
Encoded date : UTC 2014-01-19 18:33:56
Writing application : mkvmerge v6.5.0 ('Isn't she lovely') built on Oct 20 2013 12:50:05
Writing library : libebml v1.3.0 + libmatroska v1.4.1
Video
ID : 1
Format : AVC
Format/Info : Advanced Video Codec
Format profile : High@L4.1
Format settings, CABAC : Yes
Format settings, ReFrames : 2 frames
Codec ID : V_MPEG4/ISO/AVC
Duration : 1h 43mn
Bit rate mode : Variable
Width : 1 920 pixels
Height : 1 080 pixels
Display aspect ratio : 16:9
Frame rate mode : Constant
Frame rate : 23.976 fps
Color space : YUV
Chroma subsampling : 4:2:0
Bit depth : 8 bits
Scan type : Progressive
Title : MPEG-4 AVC Video / 19938 kbps / 1080p / 23.976 fps / 16:9 / High Profile 4.1
Default : Yes
Forced : No
Audio #1
ID : 2
Format : AC-3
Format/Info : Audio Coding 3
Mode extension : CM (complete main)
Format settings, Endianness : Big
Codec ID : A_AC3
Duration : 1h 43mn
Bit rate mode : Constant
Bit rate : 192 Kbps
Channel count : 2 channels
Channel positions : Front: L R
Sampling rate : 48.0 KHz
Bit depth : 16 bits
Compression mode : Lossy
Stream size : 143 MiB (1%)
Title : Дубляж Нева 1 AC3 192 kBit/s 48 kHz 2.0 DD
Language : Russian
Default : Yes
Forced : No
Audio #2
ID : 3
Format : DTS
Format/Info : Digital Theater Systems
Mode : 16
Format settings, Endianness : Big
Codec ID : A_DTS
Duration : 1h 43mn
Bit rate mode : Constant
Bit rate : 755 Kbps
Channel count : 6 channels
Channel positions : Front: L C R, Side: L R, LFE
Sampling rate : 48.0 KHz
Bit depth : 16 bits
Compression mode : Lossy
Stream size : 561 MiB (3%)
Title : MVO DTS 768 kBit/s 48 kHz 5.1 16 bit
Language : Russian
Default : No
Forced : No
Audio #3
ID : 4
Format : AC-3
Format/Info : Audio Coding 3
Mode extension : CM (complete main)
Format settings, Endianness : Big
Codec ID : A_AC3
Duration : 1h 43mn
Bit rate mode : Constant
Bit rate : 192 Kbps
Channel count : 2 channels
Channel positions : Front: L R
Sampling rate : 48.0 KHz
Bit depth : 16 bits
Compression mode : Lossy
Stream size : 143 MiB (1%)
Title : MVO AC3 192 kBit/s 48 kHz 2.0 DD
Language : Russian
Default : No
Forced : No
Audio #4
ID : 5
Format : DTS
Format/Info : Digital Theater Systems
Format profile : MA / Core
Mode : 16
Format settings, Endianness : Big
Codec ID : A_DTS
Duration : 1h 43mn
Bit rate mode : Variable
Bit rate : Unknown / 1 509 Kbps
Channel count : 6 channels
Channel positions : Front: L C R, Side: L R, LFE
Sampling rate : 48.0 KHz
Bit depth : 16 bits
Compression mode : Lossless / Lossy
Title : AVO Живов Ю. DTS-HD MA 2470 kBit/s 48 kHz 16 bit (Core: 5.1 / 48 kHz / 1509 kbps / 16 bit) 5.1
Language : Russian
Default : No
Forced : No
Audio #5
ID : 6
Format : AC-3
Format/Info : Audio Coding 3
Mode extension : CM (complete main)
Format settings, Endianness : Big
Codec ID : A_AC3
Duration : 1h 43mn
Bit rate mode : Constant
Bit rate : 192 Kbps
Channel count : 2 channels
Channel positions : Front: L R
Sampling rate : 48.0 KHz
Bit depth : 16 bits
Compression mode : Lossy
Stream size : 143 MiB (1%)
Title : AVO Визгунов AC3 192 kBit/s 48 kHz 2.0 DD
Language : Russian
Default : No
Forced : No
Audio #6
ID : 7
Format : DTS
Format/Info : Digital Theater Systems
Format profile : MA / Core
Mode : 16
Format settings, Endianness : Big
Codec ID : A_DTS
Duration : 1h 43mn
Bit rate mode : Variable
Bit rate : Unknown / 768 Kbps
Channel count : 6 channels
Channel positions : Front: L C R, Side: L R, LFE
Sampling rate : 48.0 KHz
Bit depth : 16 bits
Compression mode : Lossless / Lossy
Title : English DTS-HD MA 2162 kBit/s 48 kHz 16 bit (Core: 5.1 / 48 kHz / 768 kbps / 16 bit) 5.1
Language : English
Default : No
Forced : No
Text #1
ID : 8
Format : UTF-8
Codec ID : S_TEXT/UTF8
Codec ID/Info : UTF-8 Plain Text
Language : Russian
Default : No
Forced : No
Text #2
ID : 9
Format : UTF-8
Codec ID : S_TEXT/UTF8
Codec ID/Info : UTF-8 Plain Text
Language : English
Default : No
Forced : No
Menu
00:00:00.000 : :Chapter 01
00:11:41.742 : :Chapter 02
00:21:57.358 : :Chapter 03
00:30:05.554 : :Chapter 04
00:42:56.114 : :Chapter 05
00:53:30.748 : :Chapter 06
01:02:27.827 : :Chapter 07
01:10:18.840 : :Chapter 08
01:21:46.819 : :Chapter 09
01:33:04.662 : :Chapter 10
Скачать

Скачать торрент!

Как скачивать? · Что такое торрент? · Рейтинг и ограничения

Сайт не распространяет и не хранит электронные версии произведений, а лишь предоставляет доступ к создаваемому пользователями каталогу ссылок на торрент-файлы, которые содержат только списки хеш-сумм

[Профиль] [ЛС]
Показать сообщения:    
Ответить на тему

Текущее время: Сегодня 12:55

Часовой пояс: GMT + 4



Вы не можете начинать темы
Вы не можете отвечать на сообщения
Вы не можете редактировать свои сообщения
Вы не можете удалять свои сообщения
Вы не можете голосовать в опросах
Вы не можете прикреплять файлы к сообщениям
Вы не можете скачивать файлы