Южное гостеприимство / Southern Comfort (Уолтер Хилл / Walter Hill) [1981, США, Швейцария, Великобритания, триллер, драма, приключения, BDRemux 1080p] 2x MVO + VO + original (eng) + sub (rus, eng)

Ответить на тему
 
Автор Сообщение

user ®

Стаж: 7 лет 7 месяцев

Сообщений: 20008

Пост Пост: #1 от 31-Янв-2014 01:00

[Цитировать]

Южное гостеприимство / Southern Comfort
Год выпуска: 1981
Страна: США, Швейцария, Великобритания
Жанр: триллер, драма, приключения
Продолжительность: 01:45:56
Перевод1: Профессиональный (многоголосый, закадровый)
Перевод2: Профессиональный (многолосый, закадровый)(СВ-Кадр по заказу ТНТ)
Перевод3: Одноголосый (закадровый)
Субтитры: русские, английские
Оригинальная аудиодорожка: английский
Режиссер: Уолтер Хилл / Walter Hill
В ролях: Кит Кэррадайн, Пауэрс Бут, Фред Уорд, Franklyn Seales, Т.К. Картер, Льюис Смит, Les Lannom, Питер Койот, Алан Аутри, Брайон Джеймс и др.
Описание: Национальная гвардия проводит учения в болотах Луизианы, где суровых и нелюдимых местных ребят называют «кэджуны». Гвардейцы оторвались от рутинных дел и «выпускают пар», бряцая оружием, как мальчишки.
Один из них в шутку дал очередь холостыми по стоявшим на берегу. Но ответный выстрел был отнюдь не холостым. После этого начинаются кошмарные «учения» на выживание с невидимым противником, который знает каждую кочку на болоте.


Качество: BDRemux 1080p
Формат: MKV
Видео кодек: H.264
Аудио кодек: AC3, FLAC
Видео: 1920 x 1080; 23,976 fps; 21003 kbp
Аудио1: Русский, AC3 2.0 192 Kbps 48,0 КГц(MVO)
Аудио2: Русский, AC3 2.0 192 Kbps 48,0 КГц(MVO TNT)
Аудио3: Русский, AC3 2.0 192 Kbps 48,0 КГц(VO)
Аудио4: English, FLAC 2.0 ~348 Kbps 48,0 КГц(Original)
Субтитры: Softsub (SRT)
Главы

MediaInfo

Общее
Уникальный идентификатор : 230539486689568783331862409580474172652 (0xAD704A428BC21395AB65B3BC30BA84EC)
Полное имя : H:\Southern.Comfort.1981.BDRemux.1080p.3xRus.Eng.mkv
Формат : Matroska
Версия формата : Version 4 / Version 2
Размер файла : 16,2 Гбайт
Продолжительность : 1 ч. 45 м.
Режим общего битрейта : Переменный
Общий поток : 21,9 Мбит/сек
Название фильма : Southern Comfort
Дата кодирования : UTC 2014-01-27 15:34:39
Программа кодирования : mkvmerge v6.2.0 ('Promised Land') built on Apr 28 2013 12:22:01
Библиотека кодирования : libebml v1.3.0 + libmatroska v1.4.0
Видео
Идентификатор : 1
Формат : AVC
Формат/Информация : Advanced Video Codec
Профиль формата : High@L4.1
Параметр CABAC формата : Да
Параметр ReFrames формата : 4 кадра
Идентификатор кодека : V_MPEG4/ISO/AVC
Продолжительность : 1 ч. 45 м.
Вид битрейта : Переменный
Максимальный битрейт : 35,0 Мбит/сек
Ширина : 1920 пикселей
Высота : 1080 пикселей
Соотношение сторон : 16:9
Режим частоты кадров : Постоянный
Частота кадров : 23,976 кадра/сек
Стандарт вещания : NTSC
Цветовое пространство : YUV
Субдискретизация насыщенности : 4:2:0
Битовая глубина : 8 бит
Тип развёртки : Прогрессивная
Заголовок : Southern Comfort 1981 1080p Blu-ray AVC LPCM 2.0-BIZON1984
Default : Нет
Forced : Нет
Основные цвета : BT.709
Характеристики трансфера : BT.709
Коэффициенты матрицы : BT.709
Аудио #1
Идентификатор : 2
Формат : AC-3
Формат/Информация : Audio Coding 3
Расширение режима : CM (complete main)
Параметр Endianness формата : Big
Идентификатор кодека : A_AC3
Продолжительность : 1 ч. 45 м.
Вид битрейта : Постоянный
Битрейт : 192 Кбит/сек
Каналы : 2 канала
Расположение каналов : Front: L R
Частота : 48,0 КГц
Битовая глубина : 16 бит
Метод сжатия : С потерями
Размер потока : 146 Мбайт (1%)
Заголовок : MVO AC3 2.0 192 kbps
Язык : Russian
Default : Нет
Forced : Нет
Аудио #2
Идентификатор : 3
Формат : AC-3
Формат/Информация : Audio Coding 3
Расширение режима : CM (complete main)
Параметр Endianness формата : Big
Идентификатор кодека : A_AC3
Продолжительность : 1 ч. 45 м.
Вид битрейта : Постоянный
Битрейт : 192 Кбит/сек
Каналы : 2 канала
Расположение каналов : Front: L R
Частота : 48,0 КГц
Битовая глубина : 16 бит
Метод сжатия : С потерями
Размер потока : 146 Мбайт (1%)
Заголовок : MVO TNT AC3 2.0 192 kbps
Язык : Russian
Default : Нет
Forced : Нет
Аудио #3
Идентификатор : 4
Формат : AC-3
Формат/Информация : Audio Coding 3
Расширение режима : CM (complete main)
Параметр Endianness формата : Big
Идентификатор кодека : A_AC3
Продолжительность : 1 ч. 45 м.
Вид битрейта : Постоянный
Битрейт : 192 Кбит/сек
Каналы : 2 канала
Расположение каналов : Front: L R
Частота : 48,0 КГц
Битовая глубина : 16 бит
Метод сжатия : С потерями
Размер потока : 146 Мбайт (1%)
Заголовок : VO AC3 2.0 192 kbps
Язык : Russian
Default : Нет
Forced : Нет
Аудио #4
Идентификатор : 5
Формат : FLAC
Формат/Информация : Free Lossless Audio Codec
Идентификатор кодека : A_FLAC
Продолжительность : 1 ч. 45 м.
Вид битрейта : Переменный
Каналы : 2 канала
Частота : 48,0 КГц
Битовая глубина : 16 бит
Заголовок : Original FLAC 2.0 348 kbps
Библиотека кодирования : libFLAC 1.2.1 (UTC 2007-09-17)
Язык : English
Default : Нет
Forced : Нет
Текст #1
Идентификатор : 6
Формат : UTF-8
Идентификатор кодека : S_TEXT/UTF8
Идентификатор кодека/Информация : UTF-8 Plain Text
Язык : Russian
Default : Нет
Forced : Нет
Текст #2
Идентификатор : 7
Формат : UTF-8
Идентификатор кодека : S_TEXT/UTF8
Идентификатор кодека/Информация : UTF-8 Plain Text
Язык : English
Default : Нет
Forced : Нет
Меню
00:00:00.000 : en:00:00:00.000
00:07:23.360 : en:00:07:23.360
00:14:52.308 : en:00:14:52.308
00:18:54.216 : en:00:18:54.216
00:27:19.054 : en:00:27:19.054
00:32:48.049 : en:00:32:48.049
00:37:45.930 : en:00:37:45.930
00:45:19.800 : en:00:45:19.800
00:53:58.735 : en:00:53:58.735
01:01:29.603 : en:01:01:29.603
01:05:52.532 : en:01:05:52.532
01:10:34.480 : en:01:10:34.480
01:17:12.294 : en:01:17:12.294
01:24:54.256 : en:01:24:54.256
01:29:19.104 : en:01:29:19.104
01:37:34.015 : en:01:37:34.015
01:43:45.970 : en:01:43:45.970

Скриншоты

Скачать

Скачать торрент!

Как скачивать? · Что такое торрент? · Рейтинг и ограничения

Сайт не распространяет и не хранит электронные версии произведений, а лишь предоставляет доступ к создаваемому пользователями каталогу ссылок на торрент-файлы, которые содержат только списки хеш-сумм

[Профиль] [ЛС]
Показать сообщения:    
Ответить на тему

Текущее время: Сегодня 01:09

Часовой пояс: GMT + 4



Вы не можете начинать темы
Вы не можете отвечать на сообщения
Вы не можете редактировать свои сообщения
Вы не можете удалять свои сообщения
Вы не можете голосовать в опросах
Вы не можете прикреплять файлы к сообщениям
Вы не можете скачивать файлы