Безумная и прекрасная / Сумасшедшая и красивый / Crazy/Beautiful (Джон Стокуэлл / John Stockwell) [2001, США, драма, мелодрама, WEB-DL 720p] DVO + Sub Eng + Original Eng

Ответить на тему
 
Автор Сообщение

user ®

Стаж: 7 лет 7 месяцев

Сообщений: 20008

Пост Пост: #1 от 31-Янв-2014 01:00

[Цитировать]

Безумная и прекраснаяCrazy/Beautiful«When it's real. When it's right. Don't let anything stand in your way»Страна: США
Студия: Touchstone Pictures
Жанр: драма, мелодрама
Год выпуска: 2001
Продолжительность: 01:39:04--Перевод: Профессиональный (двухголосый закадровый)
Cубтитры: английские
Оригинальная аудиодорожка: английский--Режиссер: Джон Стокуэлл / John Stockwell
В ролях:
Кирстен Данст, Джей Эрнандес, Брюс Дэвисон, Херман Осорио, Мигель Кастро, Томми Де Ла Круз, Роландо Молина, Соледад Ст. Хилейр, Люсинда Дженни, Тэрин Мэннинг-Описание: Любовь - не только счастье. Она и случай. И испытание. И судьба... Карлос - парень из бедной семьи. Николь - капризная богачка. Обоим по семнадцать лет - и, похоже, это единственное, что у них есть общего. Но кто бы мог подумать, что их почти случайный легкий флирт вдруг так внезапно перерастет в чувство, прихода которого не ожидали оба!
Друзья и близкие героев как один ополчились против их «недопустимой» любви. И вот уже новые Ромео и Джульетта вынуждены отстаивать свое хрупкое чувство перед лицом косного мира, который не хочет понять, что быть такими разными - еще не значит быть не созданными друг для друга.-- -Сэмпл: http://yadi.sk/d/s7KlcXxNGxDdW--Тип релиза: WEB-DL 720p
Контейнер: MKV
Видео: AVC, 1280x694 (16:9), 4038 kbps, 23,976 fps, 0,190 bpp
Аудио: русский / AC3 / 5.1 / 48 kHz / 384 kbps / 16 bit
Аудио 2: английский / AC3 / 5.1 / 48 kHz / 384 kbps / 16 bit
Формат субтитров: softsub (SRT)

MediaInfo

General
Unique ID : 181636038310240317300671268516187250197 (0x88A5D419A281C997B9EF782AE58E9E15)
Complete name : E:\Crazy.Beautiful\Crazy.Beautiful.2001.720p.WEB-DL.DD5.1.H.264.Rus.mkv
Format : Matroska
Format version : Version 2
File size : 3.39 GiB
Duration : 1h 39mn
Overall bit rate : 4 904 Kbps
Encoded date : UTC 2014-01-29 17:12:22
Writing application : mkvmerge v6.7.0 ('Back to the Ground') 64bit built on Jan 8 2014 15:10:52
Writing library : libebml v1.3.0 + libmatroska v1.4.1-Video
ID : 1
Format : AVC
Format/Info : Advanced Video Codec
Format profile : High@L3.1
Format settings, CABAC : No
Format settings, ReFrames : 2 frames
Codec ID : V_MPEG4/ISO/AVC
Duration : 1h 39mn
Bit rate : 4 039 Kbps
Width : 1 280 pixels
Height : 694 pixels
Display aspect ratio : 16:9
Frame rate : 23.976 fps
Color space : YUV
Chroma subsampling : 4:2:0
Bit depth : 8 bits
Scan type : Progressive
Bits/(Pixel*Frame) : 0.190
Stream size : 2.79 GiB (82%)
Language : English
Default : Yes
Forced : No
Color primaries : BT.709-5, BT.1361, IEC 61966-2-4, SMPTE RP177
Transfer characteristics : BT.709-5, BT.1361
Matrix coefficients : BT.709-5, BT.1361, IEC 61966-2-4 709, SMPTE RP177-Audio #1
ID : 2
Format : AC-3
Format/Info : Audio Coding 3
Mode extension : CM (complete main)
Codec ID : A_AC3
Duration : 1h 39mn
Bit rate mode : Constant
Bit rate : 384 Kbps
Channel(s) : 6 channels
Channel positions : Front: L C R, Side: L R, LFE
Sampling rate : 48.0 KHz
Bit depth : 16 bits
Compression mode : Lossy
Stream size : 272 MiB (8%)
Title : Русский
Language : Russian
Default : Yes
Forced : No-Audio #2
ID : 3
Format : AC-3
Format/Info : Audio Coding 3
Mode extension : CM (complete main)
Codec ID : A_AC3
Duration : 1h 39mn
Bit rate mode : Constant
Bit rate : 384 Kbps
Channel(s) : 6 channels
Channel positions : Front: L C R, Side: L R, LFE
Sampling rate : 48.0 KHz
Bit depth : 16 bits
Compression mode : Lossy
Stream size : 272 MiB (8%)
Language : English
Default : No
Forced : No-Text
ID : 4
Format : UTF-8
Codec ID : S_TEXT/UTF8
Codec ID/Info : UTF-8 Plain Text
Language : English
Default : No
Forced : No-Menu
00:00:00.000 : en:Opening Title/Pacific High
00:09:19.000 : en:Detention
00:16:03.000 : en:Football Game
00:20:18.000 : en:"Thanks For The Ride"
00:29:07.000 : en:Nicole's Dad
00:39:43.000 : en:Pilot Nu?ez
00:43:06.000 : en:Falling In Love
00:49:41.000 : en:Remember Us?
00:53:14.000 : en:Quincea?era
01:00:08.000 : en:"Stay Away From My Daughter"
01:06:03.000 : en:Not Worth Loving
01:17:06.000 : en:"I Want To Be With You"
01:27:09.000 : en:New Beginnings
01:35:21.000 : en:End Credits

Скриншоты

Релиз:
Скачать

Скачать торрент!

Как скачивать? · Что такое торрент? · Рейтинг и ограничения

Сайт не распространяет и не хранит электронные версии произведений, а лишь предоставляет доступ к создаваемому пользователями каталогу ссылок на торрент-файлы, которые содержат только списки хеш-сумм

[Профиль] [ЛС]
Показать сообщения:    
Ответить на тему

Текущее время: Сегодня 08:59

Часовой пояс: GMT + 4



Вы не можете начинать темы
Вы не можете отвечать на сообщения
Вы не можете редактировать свои сообщения
Вы не можете удалять свои сообщения
Вы не можете голосовать в опросах
Вы не можете прикреплять файлы к сообщениям
Вы не можете скачивать файлы