Станция «Фрутвейл» / Fruitvale Station (Райан Куглер / Ryan Coogler) [2013, США, драма, биография, BDRip 720p] VO (Деньщиков) + Sub Rus, Eng + Original Eng

Ответить на тему
 
Автор Сообщение

user ®

Стаж: 7 лет 7 месяцев

Сообщений: 20008

Пост Пост: #1 от 31-Янв-2014 01:00

[Цитировать]

Станция «Фрутвейл» / Fruitvale Station
Страна: США
Жанр: драма, биография
Год выпуска: 2013
Продолжительность: 01:25:01
Перевод: Одноголосый закадровый (Дмитрий Деньщиков)
Cубтитры: русские, английские
Оригинальная аудиодорожка: английский
Режиссер: Райан Куглер / Ryan Coogler
В ролях: Майкл Б. Джордан, Мелони Диаз, Кевин Дюран, Октавия Спенсер, Чад Майкл Мюррэй, Ана О’Райли, Ариана Нил, Кинэн Куглер, Трестин Джордж, Джои Оглсби
Описание: Оскар Грант был обычным жизнерадостным парнем двадцати двух лет от роду. Он обожал свою дочь, был примерным сыном, изменял, но смог помириться с женой, ещё он любил потрепаться с друзьями во дворе своего родного района… Это совсем недалеко от станции Фрутвэйл, где в канун Нового 2009 года его застрелил полицейский по абсолютно непонятной причине.
Доп. информация: Работа со звуком - sashock86
Сэмпл: http://multi-up.com/945728
Тип релиза: BDRip 720p (Источник - рип от New-Team)
Контейнер: MKV
Видео: x264 High@L4.1, 1280x720, 23,976 fps, 8500 kbps, 0.385 bit/pixel
Аудио 1: DTS, 5.1 ch, 48 kHz, 24 bit, 1510 kbps (Деньщиков)
Аудио 2: DTS, 5.1 ch, 48 kHz, 24 bit, 1510 kbps
Формат субтитров: softsub (SRT)

MediaInfo

Общее
Уникальный идентификатор : 213894163152312130263000209848984562168 (0xA0EA8472A736C9F197B75710032A69F8)
Полное имя : Stantsiya.Frutveil.2013.BDRip.720p.DTS.-R.G.TorrBy.mkv
Формат : Matroska
Версия формата : Version 2
Размер файла : 6,84 Гбайт
Продолжительность : 1 ч. 25 м.
Общий поток : 11,5 Мбит/сек
Дата кодирования : UTC 2014-01-30 09:40:39
Программа кодирования : mkvmerge v4.9.1 ('Ich will') сборка от Jul 11 2011 23:53:15
Библиотека кодирования : libebml v1.2.1 + libmatroska v1.1.1
Attachment : Yes
Видео
Идентификатор : 1
Формат : AVC
Формат/Информация : Advanced Video Codec
Профиль формата : High@L4.1
Параметр CABAC формата : Да
Параметр ReFrames формата : 4 кадра
Идентификатор кодека : V_MPEG4/ISO/AVC
Продолжительность : 1 ч. 25 м.
Битрейт : 8500 Кбит/сек
Ширина : 1280 пикселей
Высота : 720 пикселей
Соотношение сторон : 16:9
Режим частоты кадров : Постоянный
Частота кадров : 23,976 кадра/сек
Цветовое пространство : YUV
Субдискретизация насыщенности : 4:2:0
Битовая глубина : 8 бит
Тип развёртки : Прогрессивная
Бит/(Пиксели*Кадры) : 0.385
Размер потока : 4,91 Гбайт (72%)
Библиотека кодирования : x264 core 132 r2310 76a5c3a
Настройки программы : cabac=1 / ref=4 / deblock=1:-2:-2 / analyse=0x3:0x113 / me=umh / subme=10 / psy=1 / psy_rd=1.00:0.15 / mixed_ref=1 / me_range=32 / chroma_me=1 / trellis=2 / 8x8dct=1 / cqm=0 / deadzone=21,11 / fast_pskip=0 / chroma_qp_offset=-3 / threads=3 / lookahead_threads=1 / sliced_threads=0 / nr=0 / decimate=0 / interlaced=0 / bluray_compat=0 / constrained_intra=0 / bframes=8 / b_pyramid=2 / b_adapt=2 / b_bias=0 / direct=3 / weightb=1 / open_gop=0 / weightp=2 / keyint=240 / keyint_min=24 / scenecut=40 / intra_refresh=0 / rc_lookahead=60 / rc=2pass / mbtree=0 / bitrate=8500 / ratetol=1.0 / qcomp=0.65 / qpmin=0 / qpmax=69 / qpstep=4 / cplxblur=20.0 / qblur=0.5 / vbv_maxrate=40000 / vbv_bufsize=30000 / nal_hrd=none / ip_ratio=1.40 / pb_ratio=1.30 / aq=1:0.80
Default : Да
Forced : Нет
Аудио #1
Идентификатор : 2
Формат : DTS
Формат/Информация : Digital Theater Systems
Режим : 16
Параметр Endianness формата : Big
Идентификатор кодека : A_DTS
Продолжительность : 1 ч. 25 м.
Вид битрейта : Постоянный
Битрейт : 1510 Кбит/сек
Каналы : 6 каналов
Расположение каналов : Front: L C R, Side: L R, LFE
Частота : 48,0 КГц
Битовая глубина : 24 бит
Метод сжатия : С потерями
Размер потока : 920 Мбайт (13%)
Заголовок : VO (Дмитрий Деньщиков aka 5 Плюх)
Язык : Russian
Default : Да
Forced : Нет
Аудио #2
Идентификатор : 3
Формат : DTS
Формат/Информация : Digital Theater Systems
Режим : 16
Параметр Endianness формата : Big
Идентификатор кодека : A_DTS
Продолжительность : 1 ч. 25 м.
Вид битрейта : Постоянный
Битрейт : 1510 Кбит/сек
Каналы : 6 каналов
Расположение каналов : Front: L C R, Side: L R, LFE
Частота : 48,0 КГц
Битовая глубина : 24 бит
Метод сжатия : С потерями
Размер потока : 920 Мбайт (13%)
Заголовок : Оригинал
Язык : English
Default : Нет
Forced : Нет
Текст #1
Идентификатор : 4
Формат : UTF-8
Идентификатор кодека : S_TEXT/UTF8
Идентификатор кодека/Информация : UTF-8 Plain Text
Язык : Russian
Default : Да
Forced : Нет
Текст #2
Идентификатор : 5
Формат : UTF-8
Идентификатор кодека : S_TEXT/UTF8
Идентификатор кодека/Информация : UTF-8 Plain Text
Язык : English
Default : Нет
Forced : Нет
Меню
00:00:00.000 : en:
00:04:56.587 : en:
00:10:20.619 : en:
00:15:32.556 : en:
00:21:04.137 : en:
00:28:54.690 : en:
00:37:12.939 : en:
00:43:31.608 : en:
00:48:09.469 : en:
00:53:01.844 : en:
00:58:22.582 : en:
01:06:17.682 : en:
01:09:44.930 : en:
01:13:01.377 : en:
01:17:06.371 : en:
01:20:00.045 : en:

Скриншоты

Скачать

Скачать торрент!

Как скачивать? · Что такое торрент? · Рейтинг и ограничения

Сайт не распространяет и не хранит электронные версии произведений, а лишь предоставляет доступ к создаваемому пользователями каталогу ссылок на торрент-файлы, которые содержат только списки хеш-сумм

[Профиль] [ЛС]
Показать сообщения:    
Ответить на тему

Текущее время: Сегодня 14:27

Часовой пояс: GMT + 4



Вы не можете начинать темы
Вы не можете отвечать на сообщения
Вы не можете редактировать свои сообщения
Вы не можете удалять свои сообщения
Вы не можете голосовать в опросах
Вы не можете прикреплять файлы к сообщениям
Вы не можете скачивать файлы