Советник / The Counselor (Ридли Скотт / Ridley Scott) [2013, США, Великобритания, триллер, драма, криминал, BDRip 720p] [Theatrical Cut] Dub + Dub Ukr + Sub Rus, Ukr, Eng + Original Eng

Ответить на тему
 
Автор Сообщение

user ®

Стаж: 7 лет 7 месяцев

Сообщений: 20008

Пост Пост: #1 от 31-Янв-2014 01:00

[Цитировать]

Советник / The Counselor (Theatrical Cut)
Страна: США, Великобритания
Жанр: триллер, драма, криминал
Год выпуска: 2013
Продолжительность: 01:57:14
Перевод 1: Профессиональный (дублированный) Russian
Перевод 2: Профессиональный (дублированный) Ukrainian
Cубтитры: русские, украинские, английские
Оригинальная аудиодорожка: английский
Режиссер: Ридли Скотт / Ridley Scott
В ролях: Майкл Фассбендер, Пенелопа Крус, Кэмерон Диаз, Хавьер Бардем, Брэд Питт, Бруно Ганц, Рози Перес, Тоби Кеббелл, Эмма Ригби, Эдгар Рамирес
Описание: Успешный адвокат, стоящий практически на вершине успеха и на пороге собственной свадьбы, из любопытства и, конечно, ради денег соглашается на предложение своего давнего знакомого, имеющего тесные связи с преступным миром, перевезти из Мексики в США партию кокаина стоимостью 20 млн. долл.
Доп. информация: Сохранены оригинальные чаптеры как на Blu-Ray
Сэмпл: http://multi-up.com/945786
Тип релиза: BDRip 720p
Контейнер: MKV
Видео: AVC 1280 x 534 (2.397) at 23.976 fps, 4588 kbps
Аудио 1: Russian DTS Audio / 5.1 / 48 kHz / 768 kbps / 24-bit (Дубляж)
Аудио 2: Ukrainian Dolby Digital Audio / 5.1 / 48 kHz / 448 kbps / 16-bit (Дубляж)
Аудио 3: English DTS Audio / 5.1 / 48 kHz / 1509 kbps /24 -bit

MediaInfo

Общее
Уникальный идентификатор : 211092218135801408172228044451775044905 (0x9ECEE1E48A1D8BE784F8202D5C3CDD29)
Полное имя : D:\Counselor\The.Counselor.Theatrical.Cut.2013.720p.BluRay.Rus.Ukr.Eng.HDCLUB.mkv
Формат : Matroska
Версия формата : Version 2
Размер файла : 5,99 Гбайт
Продолжительность : 1 ч. 57 м.
Общий поток : 7314 Кбит/сек
Название фильма : HDClub present "The Counselor (2013)"
Дата кодирования : UTC 2014-01-30 09:59:57
Программа кодирования : mkvmerge v5.8.0 ('No Sleep / Pillow') built on Sep 2 2012 15:37:04
Библиотека кодирования : libebml v1.2.3 + libmatroska v1.3.0
Видео
Идентификатор : 1
Формат : AVC
Формат/Информация : Advanced Video Codec
Профиль формата : High@L4.1
Параметр CABAC формата : Да
Параметр ReFrames формата : 12 кадров
Идентификатор кодека : V_MPEG4/ISO/AVC
Продолжительность : 1 ч. 57 м.
Битрейт : 4588 Кбит/сек
Ширина : 1280 пикселей
Высота : 534 пикселя
Соотношение сторон : 2,40:1
Режим частоты кадров : Постоянный
Частота кадров : 23,976 кадра/сек
Цветовое пространство : YUV
Субдискретизация насыщенности : 4:2:0
Битовая глубина : 8 бит
Тип развёртки : Прогрессивная
Бит/(Пиксели*Кадры) : 0.280
Размер потока : 3,64 Гбайт (61%)
Заголовок : The.Counselor.Theatrical.Cut.2013.720p.BluRay.Rus.Ukr.Eng.HDClub
Библиотека кодирования : x264 core 140 r2377+40 929f149 tMod [8-bit@all X86_64]
Настройки программы : cabac=1 / ref=12 / deblock=1:-3:-3 / analyse=0x3:0x133 / me=umh / subme=11 / psy=1 / fade_compensate=0.00 / psy_rd=1.00:0.00 / mixed_ref=1 / me_range=64 / chroma_me=1 / trellis=2 / 8x8dct=1 / cqm=0 / deadzone=21,11 / fast_pskip=0 / chroma_qp_offset=-2 / threads=12 / lookahead_threads=2 / sliced_threads=0 / nr=0 / decimate=0 / interlaced=0 / bluray_compat=0 / constrained_intra=0 / fgo=0 / bframes=7 / b_pyramid=2 / b_adapt=2 / b_bias=0 / direct=3 / weightb=1 / open_gop=0 / weightp=2 / keyint=240 / keyint_min=23 / scenecut=40 / intra_refresh=0 / rc_lookahead=60 / rc=2pass / mbtree=0 / bitrate=4588 / ratetol=1.0 / qcomp=0.70 / qpmin=0:0:0 / qpmax=69:69:69 / qpstep=4 / cplxblur=20.0 / qblur=0.5 / vbv_maxrate=50000 / vbv_bufsize=62500 / nal_hrd=none / filler=0 / ip_ratio=1.30 / pb_ratio=1.20 / aq=4:0.80 / aq-sensitivity=10.00 / aq-factor=1.00:1.00:1.00 / aq2=0 / aq3=0
Язык : English
Default : Да
Forced : Нет
Аудио #1
Идентификатор : 2
Формат : DTS
Формат/Информация : Digital Theater Systems
Режим : 16
Параметр Endianness формата : Big
Идентификатор кодека : A_DTS
Продолжительность : 1 ч. 57 м.
Вид битрейта : Постоянный
Битрейт : 768 Кбит/сек
Каналы : 6 каналов
Расположение каналов : Front: L C R, Side: L R, LFE
Частота : 48,0 КГц
Битовая глубина : 24 бит
Метод сжатия : С потерями
Размер потока : 644 Мбайт (11%)
Заголовок : DTS 5.1 @ 768 kbps - Dubbed [BD EUR]
Язык : Russian
Default : Да
Forced : Нет
Аудио #2
Идентификатор : 3
Формат : AC-3
Формат/Информация : Audio Coding 3
Расширение режима : CM (complete main)
Параметр Endianness формата : Big
Идентификатор кодека : A_AC3
Продолжительность : 1 ч. 57 м.
Вид битрейта : Постоянный
Битрейт : 448 Кбит/сек
Каналы : 6 каналов
Расположение каналов : Front: L C R, Side: L R, LFE
Частота : 48,0 КГц
Битовая глубина : 16 бит
Метод сжатия : С потерями
Размер потока : 376 Мбайт (6%)
Заголовок : AC3 5.1 @ 448 kbps - Dubbed [BD EUR]
Язык : Ukrainian
Default : Нет
Forced : Нет
Аудио #3
Идентификатор : 4
Формат : DTS
Формат/Информация : Digital Theater Systems
Режим : 16
Параметр Endianness формата : Big
Идентификатор кодека : A_DTS
Продолжительность : 1 ч. 57 м.
Вид битрейта : Постоянный
Битрейт : 1509 Кбит/сек
Каналы : 6 каналов
Расположение каналов : Front: L C R, Side: L R, LFE
Частота : 48,0 КГц
Битовая глубина : 24 бит
Метод сжатия : С потерями
Размер потока : 1,24 Гбайт (21%)
Заголовок : DTS 5.1 @ 1536 kbps - Original [Core DTS HD]
Язык : English
Default : Нет
Forced : Нет
Текст #1
Идентификатор : 5
Формат : UTF-8
Идентификатор кодека : S_TEXT/UTF8
Идентификатор кодека/Информация : UTF-8 Plain Text
Заголовок : full
Язык : Russian
Default : Нет
Forced : Нет
Текст #2
Идентификатор : 6
Формат : UTF-8
Идентификатор кодека : S_TEXT/UTF8
Идентификатор кодека/Информация : UTF-8 Plain Text
Заголовок : full
Язык : Ukrainian
Default : Нет
Forced : Нет
Текст #3
Идентификатор : 7
Формат : UTF-8
Идентификатор кодека : S_TEXT/UTF8
Идентификатор кодека/Информация : UTF-8 Plain Text
Заголовок : full
Язык : English
Default : Нет
Forced : Нет
Меню
00:00:00.000 : en:Chapter 1
00:04:44.701 : en:Chapter 2
00:07:54.056 : en:Chapter 3
00:09:49.588 : en:Chapter 4
00:13:45.532 : en:Chapter 5
00:20:49.831 : en:Chapter 6
00:23:53.098 : en:Chapter 7
00:26:31.715 : en:Chapter 8
00:34:09.881 : en:Chapter 9
00:39:30.659 : en:Chapter 10
00:45:38.402 : en:Chapter 11
00:48:20.772 : en:Chapter 12
00:54:04.157 : en:Chapter 13
00:58:46.272 : en:Chapter 14
01:00:29.083 : en:Chapter 15
01:08:26.352 : en:Chapter 16
01:12:55.162 : en:Chapter 17
01:17:10.834 : en:Chapter 18
01:20:23.735 : en:Chapter 19
01:23:28.795 : en:Chapter 20
01:25:56.067 : en:Chapter 21
01:30:28.589 : en:Chapter 22
01:33:16.132 : en:Chapter 23
01:38:24.273 : en:Chapter 24
01:43:28.577 : en:Chapter 25
01:47:40.662 : en:Chapter 26
01:49:45.829 : en:Chapter 27
01:53:11.618 : en:Chapter 28

Скриншоты

Скачать

Скачать торрент!

Как скачивать? · Что такое торрент? · Рейтинг и ограничения

Сайт не распространяет и не хранит электронные версии произведений, а лишь предоставляет доступ к создаваемому пользователями каталогу ссылок на торрент-файлы, которые содержат только списки хеш-сумм

[Профиль] [ЛС]
Показать сообщения:    
Ответить на тему

Текущее время: Сегодня 09:59

Часовой пояс: GMT + 4



Вы не можете начинать темы
Вы не можете отвечать на сообщения
Вы не можете редактировать свои сообщения
Вы не можете удалять свои сообщения
Вы не можете голосовать в опросах
Вы не можете прикреплять файлы к сообщениям
Вы не можете скачивать файлы