Гагарин. Первый в космосе (Павел Пархоменко) [2013, Россия, драма, биография, история, BDRip-AVC] [Лицензия]

Ответить на тему
 
Автор Сообщение

user ®

Стаж: 7 лет 7 месяцев

Сообщений: 20008

Пост Пост: #1 от 31-Янв-2014 01:00

[Цитировать]

Гагарин. Первый в космосе- Страна: Россия
Студия: Kremlin Films
Жанр: драма, биография, история
Год выпуска: 2013
Продолжительность: 01:48:11
Перевод: не требуется
Оригинальная аудиодорожка: русский [Лицензия]
Cубтитры: нет
Режиссер: Павел Пархоменко
В ролях: Ярослав Жалнин, Михаил Филиппов, Владимир Стеклов, Ольга Иванова, Вадим Мичман, Даниил Воробьев, Надежда Маркина, Виктор Проскурин, Инга Стрелкова-Оболдина, Валерий Афанасьев...
Описание: Фильм посвящен первым шагам человечества на пути освоения космоса и непосредственно судьбе первого космонавта Ю. А. Гагарина. Основной лейтмотив — борьба за право быть первым: соревнование в первом отряде космонавтов; конкуренция технологий в ракетостроении; противостояние сверхдержав — СССР и США.
В первый отряд космонавтов отбирали из трёх тысяч летчиков-истребителей по всей стране. В легендарную двадцатку попали лучшие из лучших. Кто из них полетит первым, не знал никто. На этом пути пришлось бороться не только с земным притяжением…- -Автор рипа: avproh
Исходник: Blu-ray 1080p
Качество: BDRip-AVC
Формат: MKV
Видео: 1024x576 (16:9), 25.000 fps, H264 ~ 2441 kbps avg, 0.166 bit/pixel
Аудио: 48 kHz, АС3 6 ch, 448 kbps, русский

MediaInfo

Общее
Формат : Matroska
Версия формата : Version 4 / Version 2
Размер файла : 2,18 Гбайт
Продолжительность : 1 ч. 48 м.
Общий поток : 2890 Кбит/сек
Дата кодирования : UTC 2013-07-20 08:18:30
Программа кодирования : mkvmerge v6.1.0 ('Old Devil') built on Mar 2 2013 14:32:37
Библиотека кодирования : libebml v1.3.0 + libmatroska v1.4.0
Видео
Идентификатор : 1
Формат : AVC
Формат/Информация : Advanced Video Codec
Профиль формата : High@L4.1
Параметр CABAC формата : Да
Параметр ReFrames формата : 11 кадров
Идентификатор кодека : V_MPEG4/ISO/AVC
Продолжительность : 1 ч. 48 м.
Битрейт : 2441 Кбит/сек
Ширина : 1024 пикселя
Высота : 576 пикселей
Соотношение сторон : 16:9
Режим частоты кадров : Постоянный
Частота кадров : 25,000 кадров/сек
Цветовое пространство : YUV
Субдискретизация насыщенности : 4:2:0
Битовая глубина : 8 бит
Тип развёртки : Прогрессивная
Бит/(Пиксели*Кадры) : 0.166
Размер потока : 1,80 Гбайт (83%)
Библиотека кодирования : x264 core 130 r2273 b3065e6
Настройки программы : cabac=1 / ref=11 / deblock=1:-2:-1 / analyse=0x3:0x113 / me=umh / subme=9 / psy=1 / psy_rd=1.00:0.10 / mixed_ref=1 / me_range=32 / chroma_me=1 / trellis=2 / 8x8dct=1 / cqm=0 / deadzone=21,11 / fast_pskip=1 / chroma_qp_offset=-3 / threads=9 / lookahead_threads=2 / sliced_threads=0 / nr=0 / decimate=1 / interlaced=0 / bluray_compat=0 / constrained_intra=0 / bframes=11 / b_pyramid=2 / b_adapt=2 / b_bias=0 / direct=3 / weightb=1 / open_gop=0 / weightp=2 / keyint=250 / keyint_min=25 / scenecut=40 / intra_refresh=0 / rc_lookahead=80 / rc=2pass / mbtree=1 / bitrate=2441 / ratetol=1.0 / qcomp=0.60 / qpmin=0 / qpmax=69 / qpstep=4 / cplxblur=20.0 / qblur=0.5 / ip_ratio=1.40 / aq=2:0.90
Язык : Russian
Default : Да
Forced : Нет
Аудио
Идентификатор : 2
Формат : AC-3
Формат/Информация : Audio Coding 3
Расширение режима : CM (complete main)
Параметр Endianness формата : Big
Идентификатор кодека : A_AC3
Продолжительность : 1 ч. 48 м.
Вид битрейта : Постоянный
Битрейт : 448 Кбит/сек
Каналы : 6 каналов
Расположение каналов : Front: L C R, Side: L R, LFE
Частота : 48,0 КГц
Битовая глубина : 16 бит
Метод сжатия : С потерями
Размер потока : 347 Мбайт (16%)
Язык : Russian
Default : Да
Forced : Нет
Меню
00:00:00.000 : en:00:00:00.000
00:08:32.880 : en:00:08:32.880
00:19:21.240 : en:00:19:21.240
00:28:46.560 : en:00:28:46.560
00:41:21.200 : en:00:41:21.200
00:50:17.600 : en:00:50:17.600
00:59:30.880 : en:00:59:30.880
01:08:02.400 : en:01:08:02.400
01:14:33.320 : en:01:14:33.320
01:28:30.840 : en:01:28:30.840
01:34:35.880 : en:01:34:35.880
01:43:30.360 : en:01:43:30.360

Скриншоты:

Сохранены оригинальные чаптеры (главы)как на Blu-ray
Скачать

Скачать торрент!

Как скачивать? · Что такое торрент? · Рейтинг и ограничения

Сайт не распространяет и не хранит электронные версии произведений, а лишь предоставляет доступ к создаваемому пользователями каталогу ссылок на торрент-файлы, которые содержат только списки хеш-сумм

[Профиль] [ЛС]
Показать сообщения:    
Ответить на тему

Текущее время: Сегодня 02:14

Часовой пояс: GMT + 4



Вы не можете начинать темы
Вы не можете отвечать на сообщения
Вы не можете редактировать свои сообщения
Вы не можете удалять свои сообщения
Вы не можете голосовать в опросах
Вы не можете прикреплять файлы к сообщениям
Вы не можете скачивать файлы