Курьер (Карен Шахназаров) [1986, драма, мелодрама, комедия, BDRip-AVC]

Ответить на тему
 
Автор Сообщение

user ®

Стаж: 7 лет 7 месяцев

Сообщений: 20008

Пост Пост: #1 от 30-Янв-2014 14:30

[Цитировать]

Курьер
Жанр: драма, мелодрама, комедия
Год выпуска: 1986
Продолжительность: 01:27:20
Режиссёр: Карен Шахназаров
В ролях: Федор Дунаевский, Анастасия Немоляева, Олег Басилашвили, Инна Чурикова, Светлана Крючкова, Александр Панкратов-Черный, Владимир Меньшов, Алевтина Евдокимова, Евдокия Урусова
Описание: Выпускник школы Иван, дожидаясь призыва в армию, работает курьером в редакции. Окружающие его солидные взрослые люди с трудом приспосабливаются к удивительной способности этого парня любое событие превратить в невероятное происшествие - порой уморительно веселое, а, подчас, и непоправимо грустное...
Доп. информация: Полная реставрация изображения и звука. Исходные киноматериалы подготовлены Госфильмофондом России. Покадровая цифровая реставрация изображения, ремастеринг звука и авторинг проведены объединением «Крупный план».
[url=http://***/forum/viewtopic.php?t=4118127]Исходник Blu-Ray[/url]
Качество видео: BDRip-AVC
Формат видео: MKV
Видео: 1152x490, (2,35:1), 23,976 fps, AVC, ~2970 Kbps
Аудио: Русский, Dolby Digital Audio (5.1 / 48 kHz / 448 kbps)

MediaInfo

raw [info]: 1152x490p 1:1 @ 24000/1001 fps (cfr)
x264 [info]: using SAR=1/1
x264 [info]: using cpu capabilities: MMX2 SSE2Fast SSSE3 SSE4.2 AVX
x264 [info]: profile High, level 4.1
x264 [info]: frame I:772 Avg QP:17.08 size:105162
x264 [info]: frame P:24301 Avg QP:20.17 size: 39998
x264 [info]: frame B:100576 Avg QP:23.13 size: 8876-Общее
Уникальный идентификатор : 189268178387389557425321456835810414336 (0x8E63B9A883EC9B99B650DE61213DCF00)
Полное имя : D:\Курьер_1986-BDRip-AVC.mkv
Формат : Matroska
Версия формата : Version 2
Размер файла : 2,09 Гбайт
Продолжительность : 1 ч. 28 м.
Общий поток : 3377 Кбит/сек
Дата кодирования : UTC 2014-01-30 08:21:18
Программа кодирования : mkvmerge v5.1.0 ('And so it goes') built on Nov 28 2011 23:58:28
Библиотека кодирования : libebml v1.2.3 + libmatroska v1.3.0
Видео
Идентификатор : 1
Формат : AVC
Формат/Информация : Advanced Video Codec
Профиль формата : High@L4.1
Параметр CABAC формата : Да
Параметр ReFrames формата : 14 кадров
Идентификатор кодека : V_MPEG4/ISO/AVC
Продолжительность : 1 ч. 28 м.
Битрейт : 2971 Кбит/сек
Ширина : 1152 пикселя
Высота : 490 пикселей
Соотношение сторон : 2,35:1
Режим частоты кадров : Постоянный
Частота кадров : 23,976 кадра/сек
Цветовое пространство : YUV
Субдискретизация насыщенности : 4:2:0
Битовая глубина : 8 бит
Тип развёртки : Прогрессивная
Бит/(Пиксели*Кадры) : 0.220
Размер потока : 1,77 Гбайт (85%)
Библиотека кодирования : x264 core 140 r2377 1ca7bb9
Настройки программы : cabac=1 / ref=14 / deblock=1:-3:-2 / analyse=0x3:0x113 / me=umh / subme=11 / psy=1 / psy_rd=1.05:0.15 / mixed_ref=1 / me_range=24 / chroma_me=1 / trellis=2 / 8x8dct=1 / cqm=0 / deadzone=21,11 / fast_pskip=0 / chroma_qp_offset=-3 / threads=12 / lookahead_threads=2 / sliced_threads=0 / nr=0 / decimate=0 / interlaced=0 / bluray_compat=0 / constrained_intra=0 / bframes=8 / b_pyramid=2 / b_adapt=2 / b_bias=0 / direct=3 / weightb=1 / open_gop=0 / weightp=2 / keyint=250 / keyint_min=23 / scenecut=40 / intra_refresh=0 / rc_lookahead=60 / rc=2pass / mbtree=1 / bitrate=2971 / ratetol=1.0 / qcomp=0.65 / qpmin=0 / qpmax=41 / qpstep=4 / cplxblur=20.0 / qblur=0.5 / vbv_maxrate=50000 / vbv_bufsize=62500 / nal_hrd=none / filler=0 / ip_ratio=1.30 / aq=1:0.80
Язык : English
Default : Да
Forced : Нет
Основные цвета : BT.709
Характеристики трансфера : BT.709
Коэффициенты матрицы : BT.709
Аудио
Идентификатор : 2
Формат : AC-3
Формат/Информация : Audio Coding 3
Расширение режима : CM (complete main)
Параметр Endianness формата : Big
Идентификатор кодека : A_AC3
Продолжительность : 1 ч. 28 м.
Вид битрейта : Постоянный
Битрейт : 448 Кбит/сек
Каналы : 6 каналов
Расположение каналов : Front: L C R, Side: L R, LFE
Частота : 48,0 КГц
Битовая глубина : 16 бит
Метод сжатия : С потерями
Размер потока : 284 Мбайт (13%)
Язык : Russian
Default : Да
Forced : Нет
Скачать

Скачать торрент!

Как скачивать? · Что такое торрент? · Рейтинг и ограничения

Сайт не распространяет и не хранит электронные версии произведений, а лишь предоставляет доступ к создаваемому пользователями каталогу ссылок на торрент-файлы, которые содержат только списки хеш-сумм

[Профиль] [ЛС]
Показать сообщения:    
Ответить на тему

Текущее время: Сегодня 15:29

Часовой пояс: GMT + 4



Вы не можете начинать темы
Вы не можете отвечать на сообщения
Вы не можете редактировать свои сообщения
Вы не можете удалять свои сообщения
Вы не можете голосовать в опросах
Вы не можете прикреплять файлы к сообщениям
Вы не можете скачивать файлы