Возрождение зомби / Zombies Reborn / Endless Crime (Сяо Ён / Xia Yong) [2012, Китай, триллер, ужасы, драма, HDRip] DVO

Ответить на тему
 
Автор Сообщение

user ®

Стаж: 11 лет

Сообщений: 15151

Пост Пост: #1 от 30-Янв-2014 03:05

[Цитировать]

Возрождение зомби / Zombies Reborn / Endless Crime
Страна: Китай
Жанр: триллер, ужасы, драма
Год выпуска: 2012
Продолжительность: 01:28:18-Перевод: Любительский (двухголосый закадровый) den904 & DeadSno
Cубтитры: английские, китайские (вшитые)
Оригинальная аудиодорожка: нет-Режиссер: Сяо Ён / Xia Yong
В ролях: Лау Сэк Мин, Сиэ Мяо, Лю Тьетун, Брюс Люн-Описание: Учёный ставит опыты на умерших людях, дабы открыть формулу вечной жизни...- -Релиз группы
-Качество видео: HDRip
Формат видео: AVI
Видео: XviD, 720x400 (1.80:1), 25 fps, 2002 kbps avg, 0.28 bit/pixel
Аудио: Русский MPEG layer 3, 192 kbps-

Доп. информация

Переводчик: Ками
Рип: Public Enemy (((
Постер: Public Enemy (((
Звук: Public Enemy (((

MediaInfo

Format : AVI
Format/Info : Audio Video Interleave
File size : 1.36 GiB
Duration : 1h 28mn
Overall bit rate : 2 204 Kbps
Writing application : VirtualDubMod 1.5.10.2 (build 2540/release)
Writing library : VirtualDubMod build 2540/release
Video
ID : 0
Format : MPEG-4 Visual
Format profile : Advanced Simple@L5
Format settings, BVOP : 1
Format settings, QPel : No
Format settings, GMC : No warppoints
Format settings, Matrix : Custom
Codec ID : XVID
Codec ID/Hint : XviD
Duration : 1h 28mn
Bit rate : 2 003 Kbps
Width : 720 pixels
Height : 400 pixels
Display aspect ratio : 16:9
Frame rate : 25.000 fps
Color space : YUV
Chroma subsampling : 4:2:0
Bit depth : 8 bits
Scan type : Progressive
Compression mode : Lossy
Bits/(Pixel*Frame) : 0.278
Stream size : 1.24 GiB (91%)
Writing library : XviD 73
Audio
ID : 1
Format : MPEG Audio
Format version : Version 1
Format profile : Layer 3
Mode : Joint stereo
Codec ID : 55
Codec ID/Hint : MP3
Duration : 1h 28mn
Bit rate mode : Constant
Bit rate : 192 Kbps
Channel(s) : 2 channels
Sampling rate : 48.0 KHz
Compression mode : Lossy
Stream size : 121 MiB (9%)
Alignment : Aligned on interleaves
Interleave, duration : 40 ms (1.00 video frame)
Interleave, preload duration : 504 ms

Скриншот с названием

Скриншоты

Скачать

Скачать торрент! Возрождение зомби / Zombies Reborn / Endless Crime (Сяо Ён / Xia Yong) [2012, Китай, триллер, ужасы, драма, HDRip] DVO

Как скачивать? · Что такое торрент? · Рейтинг и ограничения

Сайт не распространяет и не хранит электронные версии произведений, а лишь предоставляет доступ к создаваемому пользователями каталогу ссылок на торрент-файлы, которые содержат только списки хеш-сумм

[Профиль] [ЛС]
Показать сообщения:    
Ответить на тему

Текущее время: Сегодня 00:14

Часовой пояс: GMT + 4



Вы не можете начинать темы
Вы не можете отвечать на сообщения
Вы не можете редактировать свои сообщения
Вы не можете удалять свои сообщения
Вы не можете голосовать в опросах
Вы не можете прикреплять файлы к сообщениям
Вы не можете скачивать файлы