Милая Фрэнсис / Frances Ha (Ноа Баумбах / Noah Baumbach) [2012, США, Драма, комедия, BDRip 1080p] Dub + Sub Rus, Eng + Original Eng

Ответить на тему
 
Автор Сообщение

user ®

Стаж: 7 лет 7 месяцев

Сообщений: 20008

Пост Пост: #1 от 30-Янв-2014 03:05

[Цитировать]

Милая Фрэнсис / Frances Ha
Страна: США
Студия: Pine District Pictures, RT Features, Scott Rudin Productions
Жанр: Драма, комедия
Год выпуска: 2012
Продолжительность: 01:26:04
Перевод: Профессиональный (дублированный)
Cубтитры: русские, английские
Оригинальная аудиодорожка: английский
Режиссер: Ноа Баумбах / Noah Baumbach
В ролях: Грета Гервиг, Мики Самнер, Майкл Эспер, Адам Драйвер, Майкл Зеген, Шарлотта д’Амбуаз, Грэйс Гаммер, Дайва Дюпри, Изабель МакНалли, Джастин Люпе
Описание: Фрэнсис живёт в Нью-Йорке, но у нее, по сути, нет дома. Фрэнсис работает в танцевальной труппе, но она, признаться, совсем не танцор. У Фрэнсис есть лучшая подруга Софи, но теперь они почти не общаются, если честно. Фрэнсис живет своими мечтами, которые с каждым днем становятся все более несбыточными. Фрэнсис хочет намного больше, чем может себе позволить, но она все равно проживает жизнь с легкостью, беспечностью и изяществом.
Сэмпл: http://multi-up.com/945120
Тип релиза: BDRip 1080p
Контейнер: MKV
Видео: x264, 1920x1036, 23.976 fps, ~9216 kbps
Аудио #1: Russian: AC3 5.1, 448 kbps avg |Дубляж|
Аудио #2: English: DTS 5.1, 1509 kbps avg |Оригинал|
Формат субтитров: softsub (SRT)

Трансфер на блурее, хоть и критерионовский, изначально замыленый.

2-nd_pass_log

x264 [info]:avs [info]: 1920x1036p 0:0 @ 24000/1001 fps (cfr)
x264 [info]: using cpu capabilities: MMX2 SSE2Fast SSEMisalign LZCNT
x264 [info]: profile High, level 4.0
x264 [info]: frame I:778 Avg QP:14.99 size:176030
x264 [info]: frame P:22568 Avg QP:16.75 size: 83143
x264 [info]: frame B:100471 Avg QP:18.71 size: 39166
x264 [info]: consecutive B-frames: 0.9% 0.7% 3.6% 6.0% 9.9% 70.3% 8.7%
x264 [info]: mb I I16..4: 38.1% 51.6% 10.3%
x264 [info]: mb P I16..4: 21.8% 22.6% 4.4% P16..4: 26.6% 15.3% 4.6% 0.0% 0
.0% skip: 4.7%
x264 [info]: mb B I16..4: 10.9% 7.0% 0.9% B16..8: 28.9% 13.8% 2.6% direct:
6.7% skip:29.2% L0:45.6% L1:43.2% BI:11.2%
x264 [info]: 8x8 transform intra:40.9% inter:36.8%
x264 [info]: coded y,uvDC,uvAC intra: 86.4% 0.0% 0.0% inter: 21.9% 0.0% 0.0%
x264 [info]: i16 v,h,dc,p: 10% 9% 54% 27%
x264 [info]: i8 v,h,dc,ddl,ddr,vr,hd,vl,hu: 15% 14% 34% 5% 6% 6% 6% 7% 7%
x264 [info]: i4 v,h,dc,ddl,ddr,vr,hd,vl,hu: 19% 13% 34% 5% 6% 7% 6% 5% 5%
x264 [info]: i8c dc,h,v,p: 100% 0% 0% 0%
x264 [info]: Weighted P-Frames: Y:4.2% UV:0.0%
x264 [info]: ref P L0: 49.7% 14.9% 25.6% 8.8% 1.0% 0.0%
x264 [info]: ref B L0: 75.3% 20.4% 4.3%
x264 [info]: ref B L1: 87.7% 12.3%
x264 [info]: kb/s:9214.73
encoded 123817 frames, 2.53 fps, 9214.73 kb/s

MediaInfo

General
Unique ID : 204521084094712319627716537672989321124 (0x99DD53F892616C0F937CCF06F602A7A4)
Format : Matroska
Format version : Version 4 / Version 2
File size : 6.72 GiB
Duration : 1h 26mn
Overall bit rate : 11.2 Mbps
Encoded date : UTC 2014-01-28 12:53:51
Writing application : mkvmerge v6.7.0 ('Back to the Ground') 64bit built on Jan 8 2014 15:10:52
Writing library : libebml v1.3.0 + libmatroska v1.4.1
Video
ID : 1
Format : AVC
Format/Info : Advanced Video Codec
Format profile : High@L4.0
Format settings, CABAC : Yes
Format settings, ReFrames : 4 frames
Codec ID : V_MPEG4/ISO/AVC
Duration : 1h 26mn
Bit rate : 9 216 Kbps
Width : 1 920 pixels
Height : 1 036 pixels
Display aspect ratio : 1.85:1
Frame rate mode : Constant
Frame rate : 23.976 fps
Color space : YUV
Chroma subsampling : 4:2:0
Bit depth : 8 bits
Scan type : Progressive
Bits/(Pixel*Frame) : 0.193
Stream size : 5.41 GiB (80%)
Writing library : x264 core 133 r2334 a3ac64b
Encoding settings : cabac=1 / ref=4 / deblock=1:-2:-2 / analyse=0x3:0x113 / me=umh / subme=9 / psy=0 / mixed_ref=1 / me_range=48 / chroma_me=1 / trellis=0 / 8x8dct=1 / cqm=0 / deadzone=21,11 / fast_pskip=1 / chroma_qp_offset=0 / threads=3 / lookahead_threads=1 / sliced_threads=0 / nr=0 / decimate=1 / interlaced=0 / bluray_compat=0 / constrained_intra=0 / bframes=6 / b_pyramid=2 / b_adapt=2 / b_bias=0 / direct=1 / weightb=1 / open_gop=0 / weightp=2 / keyint=250 / keyint_min=23 / scenecut=40 / intra_refresh=0 / rc=2pass / mbtree=0 / bitrate=9216 / ratetol=1.0 / qcomp=0.60 / qpmin=0 / qpmax=69 / qpstep=4 / cplxblur=20.0 / qblur=0.5 / ip_ratio=1.40 / pb_ratio=1.30 / aq=1:1.00
Default : Yes
Forced : No
Audio #1
ID : 2
Format : AC-3
Format/Info : Audio Coding 3
Mode extension : CM (complete main)
Format settings, Endianness : Big
Codec ID : A_AC3
Duration : 1h 26mn
Bit rate mode : Constant
Bit rate : 448 Kbps
Channel(s) : 6 channels
Channel positions : Front: L C R, Side: L R, LFE
Sampling rate : 48.0 KHz
Bit depth : 16 bits
Compression mode : Lossy
Stream size : 276 MiB (4%)
Language : Russian
Default : Yes
Forced : No
Audio #2
ID : 3
Format : DTS
Format/Info : Digital Theater Systems
Mode : 16
Format settings, Endianness : Big
Codec ID : A_DTS
Duration : 1h 26mn
Bit rate mode : Constant
Bit rate : 1 509 Kbps
Channel(s) : 6 channels
Channel positions : Front: L C R, Side: L R, LFE
Sampling rate : 48.0 KHz
Bit depth : 24 bits
Compression mode : Lossy
Stream size : 929 MiB (14%)
Language : English
Default : No
Forced : No
Text #1
ID : 4
Format : UTF-8
Codec ID : S_TEXT/UTF8
Codec ID/Info : UTF-8 Plain Text
Language : Russian
Default : No
Forced : No
Text #2
ID : 5
Format : UTF-8
Codec ID : S_TEXT/UTF8
Codec ID/Info : UTF-8 Plain Text
Language : English
Default : No
Forced : No
Menu
00:00:00.000 : en:00:00:00.000
00:02:09.504 : en:00:02:09.504
00:07:05.717 : en:00:07:05.717
00:15:55.163 : en:00:15:55.163
00:19:11.776 : en:00:19:11.776
00:23:37.499 : en:00:23:37.499
00:32:12.514 : en:00:32:12.514
00:40:07.030 : en:00:40:07.030
00:43:52.630 : en:00:43:52.630
00:53:25.994 : en:00:53:25.994
01:01:17.340 : en:01:01:17.340
01:07:22.121 : en:01:07:22.121
01:16:41.680 : en:01:16:41.680

Скриншоты


Скачать

Скачать торрент!

Как скачивать? · Что такое торрент? · Рейтинг и ограничения

Сайт не распространяет и не хранит электронные версии произведений, а лишь предоставляет доступ к создаваемому пользователями каталогу ссылок на торрент-файлы, которые содержат только списки хеш-сумм

[Профиль] [ЛС]
Показать сообщения:    
Ответить на тему

Текущее время: Сегодня 04:28

Часовой пояс: GMT + 4



Вы не можете начинать темы
Вы не можете отвечать на сообщения
Вы не можете редактировать свои сообщения
Вы не можете удалять свои сообщения
Вы не можете голосовать в опросах
Вы не можете прикреплять файлы к сообщениям
Вы не можете скачивать файлы