Уимблдон / Wimbledon (Ричард Лонкрэйн / Richard Loncraine) [2004, Великобритания, Франция, США, мелодрама, комедия, спорт, BDRip 720p] DUB (R5) + DVO (Tycoon) + MVO (Ukrainian, НТН) + Original (Eng) + Sub (Rus, Eng)

Ответить на тему
 
Автор Сообщение

user ®

Стаж: 7 лет 7 месяцев

Сообщений: 20008

Пост Пост: #1 от 29-Янв-2014 20:45

[Цитировать]

Уимблдон / Wimbledon«She's the golden girl. He's the longshot. It's a match made in...»- Страна: Великобритания, Франция, США
Жанр: мелодрама, комедия, спорт
Год выпуска: 2004
Продолжительность: 01:37:45-Перевод №1: Профессиональный (полное дублирование) R5
Перевод №2: Профессиональный (двухголосый закадровый) Tycoon
Оригинальная аудиодорожка: English
Cубтитры: Russian, English-Режиссер: Ричард Лонкрэйн / Richard Loncraine
В ролях: Кирстен Данст, Пол Беттани, Кайл Хайд, Роберт Линдсэй, Селия Имри, Пенни Райдер, Аннабел Левентон, Аманда Уокер, Джеймс МакЭвой, Бернард Хилл и др.-Описание: Питер — типичный неудачник, ему одинаково не везет как в личной жизни, так и на профессиональном поприще. Каким-то чудом горе-спортсмену, чья фамилия находится в самом конце мирового теннисного рейтинга, удается стать участником престижного Уимблдонского турнира.
Там-то он и встречает Лиззи — звезду американского тенниса, в которую безумно влюбляется. Вдохновленный обретенной любовью и собственным мастерством на корте, Питер все выше поднимается по турнирной лестнице. Еще немного, и мечта всей его жизни — выиграть чемпионский кубок — вот-вот станет реальностью, если, конечно, удача снова не изменит ему…-IMDB | КиноПоиск | Сэмпл-Качество видео: BDRip 720p | исх. Wimbledon 2004 1080p Blu-ray VC-1 DTS-HD MA 5.1
Формат видео: MKV-Видео: 1280x546 at 23.976 fps, x264@L4.1, crf, ~7448 kbps avg
Аудио №1: 48 kHz, AC3, 3/2 (L,C,R,l,r) + LFE ch, ~448 kbps avg | Профессиональный (полное дублирование) R5
Аудио №2: 48 kHz, AC3, 3/2 (L,C,R,l,r) + LFE ch, ~448 kbps avg | Профессиональный (двухголосый закадровый) Tycoon
Аудио №3: 48 kHz, AC3, 2/0 (L,R) ch, ~192.00 kbps avg | Профессиональный (многоголосый закадровый) Ukrainian НТН
Аудио №4: 48 kHz, DTS, 3/2 (L,C,R,l,r) + LFE ch, ~1509 kbps avg | English-Формат субтитров: softsub (srt)
Главы: есть-

MediaInfo

General
Unique ID : 187377423710982354928239420121343545167 (0x8CF7944162D298AF92864F1E5E834F4F)
Complete name : D:\Фильмы\Wimbledon.2004.720p.BluRay.2xRus.Eng.HDCLUB-SbR.mkv
Format : Matroska
Format version : Version 4 / Version 2
File size : 6.86 GiB
Duration : 1h 37mn
Overall bit rate : 10.0 Mbps
Movie name : Wimbledon (2004) - Release for HDCLUB by SbR
Encoded date : UTC 2014-01-21 06:25:54
Writing application : mkvmerge v6.6.0 ('The Edge Of The In Between') built on Dec 1 2013 17:55:00
Writing library : libebml v1.3.0 + libmatroska v1.4.1
Attachment : Yes / Yes
Video
ID : 1
Format : AVC
Format/Info : Advanced Video Codec
Format profile : High@L4.1
Format settings, CABAC : Yes
Format settings, ReFrames : 11 frames
Codec ID : V_MPEG4/ISO/AVC
Duration : 1h 37mn
Bit rate : 7 249 Kbps
Width : 1 280 pixels
Height : 546 pixels
Display aspect ratio : 2.35:1
Frame rate mode : Constant
Frame rate : 23.976 fps
Color space : YUV
Chroma subsampling : 4:2:0
Bit depth : 8 bits
Scan type : Progressive
Bits/(Pixel*Frame) : 0.433
Stream size : 4.95 GiB (72%)
Title : Release for HDCLUB
Writing library : x264 core 140 r2377+40 929f149 tMod [8-bit@4:2:0 X86_64]
Encoding settings : cabac=1 / ref=11 / deblock=1:-2:-2 / analyse=0x3:0x113 / me=umh / subme=11 / psy=1 / fade_compensate=0.00 / psy_rd=1.00:0.00 / mixed_ref=1 / me_range=48 / chroma_me=1 / trellis=2 / 8x8dct=1 / cqm=0 / deadzone=21,11 / fast_pskip=1 / chroma_qp_offset=-2 / threads=12 / lookahead_threads=2 / sliced_threads=0 / nr=0 / decimate=1 / interlaced=0 / bluray_compat=0 / constrained_intra=0 / fgo=0 / bframes=9 / b_pyramid=2 / b_adapt=2 / b_bias=0 / direct=3 / weightb=1 / open_gop=0 / weightp=2 / keyint=250 / keyint_min=23 / scenecut=40 / intra_refresh=0 / rc_lookahead=120 / rc=crf / mbtree=1 / crf=19.5000 / qcomp=0.80 / qpmin=0:0:0 / qpmax=69:69:69 / qpstep=4 / vbv_maxrate=62500 / vbv_bufsize=78125 / crf_max=0.0 / nal_hrd=none / filler=0 / ip_ratio=1.40 / aq=4:0.80 / aq-sensitivity=11.00 / aq-factor=1.00:1.00:1.00 / aq2=1:0.60 / aq2-sensitivity=9.00 / aq2-factor=1.00:1.00:1.00 / aq3=1:[0.60:0.60]:[0.60:0.60]:[0.60:0.60]:[0.60:0.60] / aq3-sensitivity=10.00 / aq3-factor=[1.00:1.00]:[1.00:1.00]:[1.00:1.00] / aq3-boundary=192:64:24
Language : English
Default : Yes
Forced : No
Color primaries : BT.709
Transfer characteristics : BT.709
Matrix coefficients : BT.709
Audio #1
ID : 2
Format : AC-3
Format/Info : Audio Coding 3
Mode extension : CM (complete main)
Format settings, Endianness : Big
Codec ID : A_AC3
Duration : 1h 37mn
Bit rate mode : Constant
Bit rate : 448 Kbps
Channel count : 6 channels
Channel positions : Front: L C R, Side: L R, LFE
Sampling rate : 48.0 KHz
Bit depth : 16 bits
Compression mode : Lossy
Stream size : 313 MiB (4%)
Title : Dub, R5
Language : Russian
Default : Yes
Forced : No
Audio #2
ID : 3
Format : AC-3
Format/Info : Audio Coding 3
Mode extension : CM (complete main)
Format settings, Endianness : Big
Codec ID : A_AC3
Duration : 1h 37mn
Bit rate mode : Constant
Bit rate : 448 Kbps
Channel count : 6 channels
Channel positions : Front: L C R, Side: L R, LFE
Sampling rate : 48.0 KHz
Bit depth : 16 bits
Compression mode : Lossy
Stream size : 313 MiB (4%)
Title : DVO, Tycoon
Language : Russian
Default : No
Forced : No
Audio #3
ID : 4
Format : AC-3
Format/Info : Audio Coding 3
Mode extension : CM (complete main)
Format settings, Endianness : Big
Codec ID : A_AC3
Duration : 1h 37mn
Bit rate mode : Constant
Bit rate : 192 Kbps
Channel count : 2 channels
Channel positions : Front: L R
Sampling rate : 48.0 KHz
Bit depth : 16 bits
Compression mode : Lossy
Stream size : 134 MiB (2%)
Title : MVO, НТН
Language : Ukrainian
Default : No
Forced : No
Audio #4
ID : 5
Format : DTS
Format/Info : Digital Theater Systems
Mode : 16
Format settings, Endianness : Big
Codec ID : A_DTS
Duration : 1h 37mn
Bit rate mode : Constant
Bit rate : 1 509 Kbps
Channel count : 6 channels
Channel positions : Front: L C R, Side: L R, LFE
Sampling rate : 48.0 KHz
Bit depth : 24 bits
Compression mode : Lossy
Stream size : 1.03 GiB (15%)
Language : English
Default : No
Forced : No
Text #1
ID : 6
Format : UTF-8
Codec ID : S_TEXT/UTF8
Codec ID/Info : UTF-8 Plain Text
Language : Russian
Default : No
Forced : No
Text #2
ID : 7
Format : UTF-8
Codec ID : S_TEXT/UTF8
Codec ID/Info : UTF-8 Plain Text
Language : English
Default : No
Forced : No
Menu
00:00:00.000 : en:Number 119 (Main Titles)
00:07:49.969 : en:Checking In
00:12:41.427 : en:The English Wild Card
00:19:47.895 : en:Getting Good Game
00:25:30.362 : en:Serving Mush
00:31:47.906 : en:Misrepresentation
00:40:24.422 : en:Winning Team
00:47:30.430 : en:Sticking to the Game Plan
00:53:37.672 : en:Double Fault
00:58:45.146 : en:Love Is Zero
01:05:40.227 : en:Spreading the Word
01:10:58.045 : en:The Duel
01:16:36.883 : en:Pep Talk
01:21:08.405 : en:Center Court
01:28:01.359 : en:Advantage Point
01:33:00.533 : en:End Titles

Скриншоты

Дополнительно

Рип от SbR
by Skazhutin
Скачать

Скачать торрент!

Как скачивать? · Что такое торрент? · Рейтинг и ограничения

Сайт не распространяет и не хранит электронные версии произведений, а лишь предоставляет доступ к создаваемому пользователями каталогу ссылок на торрент-файлы, которые содержат только списки хеш-сумм

[Профиль] [ЛС]
Показать сообщения:    
Ответить на тему

Текущее время: Сегодня 14:34

Часовой пояс: GMT + 4



Вы не можете начинать темы
Вы не можете отвечать на сообщения
Вы не можете редактировать свои сообщения
Вы не можете удалять свои сообщения
Вы не можете голосовать в опросах
Вы не можете прикреплять файлы к сообщениям
Вы не можете скачивать файлы