Цветок на камне (Анатолий Слесаренко, Сергей Параджанов) [1962, Поэтическая киноповесть, DVDRip]

Ответить на тему
 
Автор Сообщение

user ®

Стаж: 7 лет 7 месяцев

Сообщений: 20008

Пост Пост: #1 от 29-Янв-2014 02:10

[Цитировать]

Цветок на камне
Жанр: Поэтическая киноповесть
Год выпуска: 1962
Продолжительность: 01:11:21.240 (107031 frames)
Режиссёр: Анатолий Слесаренко, Сергей Параджанов
В ролях: Григорий Карпов, Людмила Черепанова, Инна Бурдученко, Борис Дмоховский, Георгий Епифанцев, Михаил Названов, Борислав Брондуков, Дмитрий Франько, Владимир Белокуров, Александр Гай, Анатолий Соловьёв, Иван Симоненко
Описание: На месте донецкой степи, заросшей ромашкой и ковылем, разрастается шахтерский городок. Бригадир молодежной шахты Григорий Грива влюблен в комсорга Люду и потому часто открыто иронизирует над ее организаторскими способностями. Но когда остается с ней наедине, становится робким и застенчивым, за что злится на себя и выдумывает новые шалости... Вторая история связана с появлением в шахтерском городке Христины, красивой, но замкнутой девушки, попавшей под влияние пресвитера секты. Полюбивший ее комсомолец Арсен помогает девушке уйти из секты.
Качество видео: DVDRip
Формат видео: AVI
Видео: 640x480 (1.33:1), 25 fps, XviD build 50 ~1315 kbps avg, 0.17 bit/pixel
Аудио: 48 kHz, MPEG Layer 3, 2 ch, ~128.00 kbps avg

MediaInfo

Format : AVI
Format/Info : Audio Video Interleave
File size : 742 MiB
Duration : 1h 11mn
Overall bit rate : 1 453 Kbps
Writing application : VirtualDubMod 1.5.10.3 | www.virtualdub-fr.org || (build 2550/release)
Writing library : VirtualDubMod build 2550/release
Video
ID : 0
Format : MPEG-4 Visual
Format profile : Advanced Simple@L5
Format settings, BVOP : Yes
Format settings, QPel : No
Format settings, GMC : No warppoints
Format settings, Matrix : Default (H.263)
Codec ID : XVID
Codec ID/Hint : XviD
Duration : 1h 11mn
Bit rate : 1 316 Kbps
Width : 640 pixels
Height : 480 pixels
Display aspect ratio : 4:3
Frame rate : 25.000 fps
Resolution : 8 bits
Colorimetry : 4:2:0
Scan type : Progressive
Bits/(Pixel*Frame) : 0.171
Stream size : 671 MiB (91%)
Writing library : XviD 1.2.1 (UTC 2008-12-04)
Audio
ID : 1
Format : MPEG Audio
Format version : Version 1
Format profile : Layer 3
Codec ID : 55
Codec ID/Hint : MP3
Duration : 1h 11mn
Bit rate mode : Constant
Bit rate : 128 Kbps
Channel(s) : 2 channels
Sampling rate : 48.0 KHz
Stream size : 65.3 MiB (9%)
Alignment : Aligned on interleaves
Interleave, duration : 40 ms (1.00 video frame)
Interleave, preload duration : 504 ms
Writing library : LAME3.98r
Encoding settings : -m s -V 4 -q 2 -lowpass 17 -b 128

Скриншоты

Скачать

Скачать торрент!

Как скачивать? · Что такое торрент? · Рейтинг и ограничения

Сайт не распространяет и не хранит электронные версии произведений, а лишь предоставляет доступ к создаваемому пользователями каталогу ссылок на торрент-файлы, которые содержат только списки хеш-сумм

[Профиль] [ЛС]
Показать сообщения:    
Ответить на тему

Текущее время: Сегодня 14:09

Часовой пояс: GMT + 4



Вы не можете начинать темы
Вы не можете отвечать на сообщения
Вы не можете редактировать свои сообщения
Вы не можете удалять свои сообщения
Вы не можете голосовать в опросах
Вы не можете прикреплять файлы к сообщениям
Вы не можете скачивать файлы