Сестры (Сергей Бодров мл.) [2001, Драма, Криминал, DVDRip-AVC]

Ответить на тему
 
Автор Сообщение

user ®

Стаж: 7 лет 7 месяцев

Сообщений: 20008

Пост Пост: #1 от 28-Янв-2014 15:40

[Цитировать]

Сестры«Когда тебе восемь - весь мир против тебя. Когда тебе тринадцать - ты против всего мира»- Жанр: Драма, Криминал
Год выпуска: 2001
Продолжительность: 01:20:08-Режиссер: Сергей Бодров мл.
В ролях: Оксана Акиньшина, Екатерина Горина, Роман Агеев, Татьяна Колганова, Дмитрий Орлов, Кирилл Пирогов, Александр Баширов, Андрей Краско, Татьяна Ткач, Сергей Бодров мл. и др.-Описание: В этих девочках течет одна кровь, но они ненавидят друг друга. Дине — восемь, она играет на скрипке и мечтает стать актрисой. Свете — уже тринадцать, она отлично стреляет и хочет стать снайпером в Чечне. Эти юные существа вынуждены жить в мире, где царят волчьи порядки. В мире, где крадут и убивают детей, а закон — всего лишь бледный и бессильный призрак…
Вышедший на свободу отец Дины оказывается в тяжёлой ситуации: «коллеги» из братвы обвиняют его в краже «общака». Бандиты собираются похитить его ребёнка, и он вынужден прятать обеих девочек. Но убежище оказывается ненадёжным, и детям приходится бежать. Бежать, куда глаза глядят. Без денег, без родных и друзей…
Всего за несколько страшных дней двум маленьким беззащитным девочкам предстоит столкнуться со всеми ужасами нашей жестокой жизни. Им придется повзрослеть на много лет. Но девочки узнают, что существует единственная вещь, которая сильнее зла и несправедливости, которая может спасти этот несовершенный мир. Ее имя — Любовь. И девочки полюбят друг друга. Они станут сестрами.- -Автор: AngelOfTrue--Качество видео: DVDRip-AVC
Формат видео: MKV
Видео: 700x400@764x400, 25 fps, x264 ~2150 kbps avg, 0.307 bit/pixel
Аудио: AC3 Dolby Digital / 48 KHz / 448 kbps / 3/2 (L,C,R,l,r) + LFE ch

-

x264 log

avs [info]: 700x400p 12:11 @ 25/1 fps (cfr)
x264 [info]: frame I:744 Avg QP:18.06 size: 42859 PSNR Mean Y:45.94 U:49.02 V:49.55 Avg:46.78 Global:45.99
x264 [info]: frame P:24466 Avg QP:20.22 size: 20452 PSNR Mean Y:43.33 U:47.37 V:48.12 Avg:44.35 Global:43.60
x264 [info]: frame B:95006 Avg QP:21.96 size: 7997 PSNR Mean Y:42.50 U:47.14 V:48.02 Avg:43.61 Global:42.87
x264 [info]: consecutive B-frames: 1.1% 1.6% 11.1% 12.9% 7.8% 59.0% 2.4% 1.6% 1.1% 0.3% 0.4% 0.4% 0.1% 0.2% 0.1%
x264 [info]: mb I I16..4: 3.2% 89.0% 7.8%
x264 [info]: mb P I16..4: 0.7% 19.2% 0.7% P16..4: 23.6% 29.1% 21.5% 1.5% 0.2% skip: 3.6%
x264 [info]: mb B I16..4: 0.1% 2.8% 0.1% B16..8: 22.9% 24.4% 9.2% direct:15.4% skip:25.2% L0:31.8% L1:37.5% BI:30.6%
x264 [info]: 8x8 transform intra:92.8% inter:72.5%
x264 [info]: direct mvs spatial:98.5% temporal:1.5%
x264 [info]: coded y,uvDC,uvAC intra: 88.2% 85.8% 58.4% inter: 44.4% 25.1% 8.1%
x264 [info]: i16 v,h,dc,p: 57% 15% 10% 18%
x264 [info]: i8 v,h,dc,ddl,ddr,vr,hd,vl,hu: 17% 11% 22% 6% 7% 9% 7% 10% 10%
x264 [info]: i4 v,h,dc,ddl,ddr,vr,hd,vl,hu: 19% 10% 10% 7% 12% 14% 10% 10% 9%
x264 [info]: i8c dc,h,v,p: 39% 24% 24% 13%
x264 [info]: Weighted P-Frames: Y:15.0% UV:6.1%
x264 [info]: ref P L0: 42.2% 13.6% 14.8% 7.0% 5.2% 4.1% 3.4% 2.2% 1.9% 1.6% 1.4% 1.2% 0.9% 0.2% 0.0%
x264 [info]: ref B L0: 76.5% 11.9% 4.1% 2.1% 1.5% 1.2% 1.0% 0.6% 0.5% 0.4% 0.2% 0.1%
x264 [info]: ref B L1: 95.0% 5.0%
x264 [info]: SSIM Mean Y:0.9857132 (18.451db)
x264 [info]: PSNR Mean Y:42.693 U:47.196 V:48.054 Avg:43.781 Global:43.019 kb/s:2149.54

-

MediaInfo

Формат : Matroska
Версия формата : Version 4 / Version 2
Размер файла : 1,46 Гбайт
Продолжительность : 1 ч. 20 м.
Общий поток : 2599 Кбит/сек
Дата кодирования : UTC 2014-01-28 10:41:03
Программа кодирования : mkvmerge v6.1.0 ('Old Devil') built on Mar 4 2013 09:10:42
Библиотека кодирования : libebml v1.3.0 + libmatroska v1.4.0
Видео
Идентификатор : 1
Формат : AVC
Формат/Информация : Advanced Video Codec
Профиль формата : High@L3.1
Параметр CABAC формата : Да
Параметр ReFrames формата : 13 кадров
Идентификатор кодека : V_MPEG4/ISO/AVC
Продолжительность : 1 ч. 20 м.
Битрейт : 2150 Кбит/сек
Ширина : 700 пикселей
Высота : 400 пикселей
Соотношение сторон : 1,910
Соотношение сторон в оригинале : 1,909
Режим частоты кадров : Постоянный
Частота кадров : 25,000 кадров/сек
Цветовое пространство : YUV
Субдискретизация насыщенности : 4:2:0
Битовая глубина : 8 бит
Тип развёртки : Прогрессивная
Бит/(Пиксели*Кадры) : 0.307
Размер потока : 1,18 Гбайт (81%)
Заголовок : Sestry.2001.RUS.DVDRip-AVC.AC3.-AngelOfTrue
Библиотека кодирования : x264 core 140 r2377kMod 1ca7bb9
Настройки программы : cabac=1 / ref=13 / deblock=1:-2:-1 / analyse=0x3:0x133 / me=umh / subme=11 / psy=1 / fade_compensate=0.00 / psy_rd=1.00:0.00 / mixed_ref=1 / me_range=32 / chroma_me=1 / trellis=2 / 8x8dct=1 / cqm=0 / deadzone=21,11 / fast_pskip=0 / chroma_qp_offset=-2 / threads=6 / lookahead_threads=1 / sliced_threads=0 / nr=0 / decimate=0 / interlaced=0 / bluray_compat=0 / constrained_intra=0 / fgo=0 / bframes=14 / b_pyramid=2 / b_adapt=2 / b_bias=0 / direct=3 / weightb=1 / open_gop=0 / weightp=2 / keyint=250 / keyint_min=25 / scenecut=40 / intra_refresh=0 / rc=2pass / mbtree=0 / bitrate=2150 / ratetol=1.0 / qcomp=0.65 / qpmin=0 / qpmax=69 / qpstep=4 / cplxblur=20.0 / qblur=0.5 / ip_ratio=1.35 / pb_ratio=1.25 / aq=2:1.00
Язык : Russian
Default : Да
Forced : Нет
Основные цвета : BT.601 PAL
Характеристики трансфера : BT.470 System B, BT.470 System G
Коэффициенты матрицы : BT.601
Аудио
Идентификатор : 2
Формат : AC-3
Формат/Информация : Audio Coding 3
Расширение режима : CM (complete main)
Параметр Endianness формата : Big
Идентификатор кодека : A_AC3
Продолжительность : 1 ч. 20 м.
Вид битрейта : Постоянный
Битрейт : 448 Кбит/сек
Каналы : 6 каналов
Расположение каналов : Front: L C R, Side: L R, LFE
Частота : 48,0 КГц
Битовая глубина : 16 бит
Метод сжатия : С потерями
Размер потока : 257 Мбайт (17%)
Заголовок : Original (Russian)
Язык : Russian
Default : Да
Forced : Нет

-

Скриншоты (анаморф)


Скачать

Скачать торрент!

Как скачивать? · Что такое торрент? · Рейтинг и ограничения

Сайт не распространяет и не хранит электронные версии произведений, а лишь предоставляет доступ к создаваемому пользователями каталогу ссылок на торрент-файлы, которые содержат только списки хеш-сумм

[Профиль] [ЛС]
Показать сообщения:    
Ответить на тему

Текущее время: Сегодня 02:17

Часовой пояс: GMT + 4



Вы не можете начинать темы
Вы не можете отвечать на сообщения
Вы не можете редактировать свои сообщения
Вы не можете удалять свои сообщения
Вы не можете голосовать в опросах
Вы не можете прикреплять файлы к сообщениям
Вы не можете скачивать файлы