Зов Шанхая / Shanghai Calling (Дэниэл Хсиа / Daniel Hsia) [2012, США, Китай, Мелодрама, Комедия, WEB-DL 720p] Dub (Sezmar Studio) + Sub Rus, Eng + Original Eng

Ответить на тему
 
Автор Сообщение

user ®

Стаж: 7 лет 7 месяцев

Сообщений: 20008

Пост Пост: #1 от 28-Янв-2014 12:30

[Цитировать]

Зов Шанхая / Shanghai Calling
Страна: США, Китай
Жанр: Мелодрама, Комедия
Год выпуска: 2012
Продолжительность: 01:40:54
Перевод: Любительский (дублированный) [Sezmar Studio]
Cубтитры: русские от "Фансаб-группы Мания", английские
Оригинальная аудиодорожка: английский
Режиссер: Дэниэл Хсиа / Daniel Hsia
В ролях: Дэниэл Хенни, Гэн Лэ, Жу Жу, Элиза Куп, Билл Пэкстон
Описание: Романтическая комедия про американца, который из-за работы вынужден отправиться на незнакомую землю.
Когда амбициозного адвоката Сэма переводят из Нью-Йорка в Шанхай, он сразу же попадает в неприятности, которые грозят крахом его карьере. Но при помощи красавицы-специалиста по переселению, общительного иностранного бизнесмена, умного репортера и смышленой ассистентки, Сэм сможет не только сохранить свою работу и найти настоящую любовь, но и откроет для себя много чудес, которые готов предложить ему Шанхай.
Доп. информация:Присутствует хардсаб на неанглоязычную речь.
Сэмпл: http://multi-up.com/945007
Качество видео: WEB-DL 720p
Формат видео: MKV
Видео: H264, 1280x534, 23.976fps, 3 997 Kbps
Аудио 1: AC3, 48000Hz, 2ch, 192 Kbps - (Dub)
Аудио 2: AC3, 48000Hz, 6ch, 384 Kbps - (Original)
Формат субтитров: softsub (SSA/ASS)

MediaInfo

Complete name : Shanghai.Calling.2012.mkv
Format : Matroska
Format version : Version 2
File size : 3.29 GiB
Duration : 1h 40mn
Overall bit rate : 4 663 Kbps
Encoded date : UTC 2014-01-28 06:05:24
Writing application : mkvmerge v4.8.0 ('I Got The...') сборка от May 24 2011 03:12:58
Writing library : libebml v1.2.0 + libmatroska v1.1.0
Video
ID : 1
Format : AVC
Format/Info : Advanced Video Codec
Format profile : Main@L3.1
Format settings, CABAC : No
Format settings, ReFrames : 2 frames
Codec ID : V_MPEG4/ISO/AVC
Duration : 1h 40mn
Bit rate : 3 994 Kbps
Width : 1 280 pixels
Height : 534 pixels
Display aspect ratio : 2.40:1
Frame rate mode : Constant
Frame rate : 23.976 fps
Color space : YUV
Chroma subsampling : 4:2:0
Bit depth : 8 bits
Scan type : Progressive
Bits/(Pixel*Frame) : 0.244
Stream size : 2.81 GiB (86%)
Language : English
Default : Yes
Forced : No
Color primaries : BT.709
Transfer characteristics : BT.709
Matrix coefficients : BT.709
Audio #1
ID : 2
Format : AC-3
Format/Info : Audio Coding 3
Mode extension : CM (complete main)
Format settings, Endianness : Big
Codec ID : A_AC3
Duration : 1h 40mn
Bit rate mode : Constant
Bit rate : 192 Kbps
Channel count : 2 channels
Channel positions : Front: L R
Sampling rate : 48.0 KHz
Bit depth : 16 bits
Compression mode : Lossy
Stream size : 139 MiB (4%)
Title : Sezmar Studio
Language : Russian
Default : Yes
Forced : No
Audio #2
ID : 3
Format : AC-3
Format/Info : Audio Coding 3
Mode extension : CM (complete main)
Format settings, Endianness : Big
Codec ID : A_AC3
Duration : 1h 40mn
Bit rate mode : Constant
Bit rate : 384 Kbps
Channel count : 6 channels
Channel positions : Front: L C R, Side: L R, LFE
Sampling rate : 48.0 KHz
Bit depth : 16 bits
Compression mode : Lossy
Stream size : 277 MiB (8%)
Language : English
Default : No
Forced : No
Text #1
ID : 4
Format : ASS
Codec ID : S_TEXT/ASS
Codec ID/Info : Advanced Sub Station Alpha
Compression mode : Lossless
Title : Fansub "Mania"
Language : Russian
Default : No
Forced : No
Text #2
ID : 5
Format : UTF-8
Codec ID : S_TEXT/UTF8
Codec ID/Info : UTF-8 Plain Text
Language : English
Default : No
Forced : No
Menu
00:00:00.000 : en:Chapter 1
00:10:15.000 : en:Chapter 2
00:20:05.000 : en:Chapter 3
00:31:00.000 : en:Chapter 4
00:41:16.000 : en:Chapter 5
00:50:45.000 : en:Chapter 6
00:59:53.000 : en:Chapter 7
01:10:07.000 : en:Chapter 8
01:22:42.000 : en:Chapter 9
01:34:37.000 : en:Chapter 10

Скриншоты

Скачать

Скачать торрент!

Как скачивать? · Что такое торрент? · Рейтинг и ограничения

Сайт не распространяет и не хранит электронные версии произведений, а лишь предоставляет доступ к создаваемому пользователями каталогу ссылок на торрент-файлы, которые содержат только списки хеш-сумм

[Профиль] [ЛС]
Показать сообщения:    
Ответить на тему

Текущее время: Сегодня 02:13

Часовой пояс: GMT + 4



Вы не можете начинать темы
Вы не можете отвечать на сообщения
Вы не можете редактировать свои сообщения
Вы не можете удалять свои сообщения
Вы не можете голосовать в опросах
Вы не можете прикреплять файлы к сообщениям
Вы не можете скачивать файлы