Откройте, полиция! 3 / Суперпродажные или все начинается заново / Les Ripoux 3 (Клод Зиди / Claude Zidi) [2003, Франция, комедия, криминал, HDTV 1080i] Dub + Original Fre + Sub

Ответить на тему
 
Автор Сообщение

user ®

Стаж: 7 лет 7 месяцев

Сообщений: 20008

Пост Пост: #1 от 28-Янв-2014 01:05

[Цитировать]

Откройте, полиция! 3 / Суперпродажные или все начинается заново / Les Ripoux 3 Название: Откройте, полиция! 3 / Суперпродажные или все начинается заново
Оригинальное название: Les Ripoux 3
Год выпуска: 2003
Страна: Франция
Жанр: комедия, криминал
Продолжительность: 01:40:40
Перевод: профессиональный (дублированный), «Мосфильм-Мастер» по заказу Cinema Vision, 2004 г.
Оригинальная аудиодорожка: французский
Русские субтитры: есть
Навигация по главам: нет-Режиссер: Клод Зиди / Claude Zidi
В ролях: Филипп Нуаре, Тьерри Лермитт, Лоран Дойч, Хлоя Флипо, Жан-Люк Бидо, Бернадетт Лафон, Жан-Франсуа Бальме, Лоран Бокколини, Рейнальдо Вонг, Хин Хин Чэн
Описание: Все хорошее когда-нибудь кончается. Кончились и деньги, которые приятели-полицейские скопили, "обыскивая" Мон-Мартр. В результате завзятый плейбой Франсуа Лебюш опять вернулся на работу в полицию, став образцовым детективом, над которым измывается начальник; а Рене Буарон - тот и вовсе вышел на пенсию, с головой уйдя в свое любимое занятие - игру на скачках. Однажды в результате невероятного стечения обстоятельств в руки Буарона попадает кругленькая сумма чужих денег. Правда, вскоре выясняется, что это касса китайской мафии, и теперь у Рене только один шанс избежать расправы - срочно умереть, конечно, понарошку. И вот у Буарона новая жизнь и новый паспорт. Но к несчастью, вместе с новыми документами незадачливый Рене приобрел еще и солидное криминальное прошлое рецидивиста со стажем.-Качество: HDTV 1080i (Interlaced video)
Формат: MKV
Видео кодек: AVC, L4.0
Аудио кодек: AC3
Видео: 1440x1080i@1920x1080i; 25 fps; ~ 4100 Kbps
Аудио #1: Русский; AC3, 192 Kbps, 48 kHz, 2 ch | Dub («Мосфильм-Мастер» по заказу Cinema Vision, 2004 г.)
Аудио #2: Французский; AC3, 448 Kbps, 48 kHz, 6 ch | Оригинал
Субтитры: Русские (SRT), спасибо Taran2L_87

Исходный многоканальный звук

Оригинальный (французский) _______________ Дубляж (русский)
Скачать сэмпл - http://multi-up.com/944359

MediaInfo

General
Unique ID : 176133231404930676037351696419602714972 (0x848206C5D97ABA549D2DED719126515C)
Complete name : E:\MyRazd\Les Ripoux 3.2003.HDTV.1080i.mkv
Format : Matroska
Format version : Version 4 / Version 2
File size : 3.40 GiB
Duration : 1h 40mn
Overall bit rate mode : Variable
Overall bit rate : 4 835 Kbps
Movie name : Les Ripoux 3.2003
Encoded date : UTC 2014-01-26 10:01:27
Writing application : mkvmerge v6.2.0 ('Promised Land') built on Apr 28 2013 12:22:01
Writing library : libebml v1.3.0 + libmatroska v1.4.0
Video
ID : 1
Format : AVC
Format/Info : Advanced Video Codec
Format profile : High@L4.0
Format settings, CABAC : Yes
Format settings, ReFrames : 4 frames
Codec ID : V_MPEG4/ISO/AVC
Duration : 1h 40mn
Bit rate mode : Variable
Bit rate : 4 098 Kbps
Maximum bit rate : 40.0 Mbps
Width : 1 440 pixels
Height : 1 080 pixels
Display aspect ratio : 16:9
Frame rate : 25.000 fps
Color space : YUV
Chroma subsampling : 4:2:0
Bit depth : 8 bits
Scan type : MBAFF
Bits/(Pixel*Frame) : 0.105
Stream size : 2.88 GiB (85%)
Title : Les Ripoux 3.2003.HDTV.1080i
Language : French
Default : Yes
Forced : No
Audio #1
ID : 2
Format : AC-3
Format/Info : Audio Coding 3
Mode extension : CM (complete main)
Codec ID : A_AC3
Duration : 1h 40mn
Bit rate mode : Constant
Bit rate : 192 Kbps
Channel(s) : 2 channels
Channel positions : Front: L R
Sampling rate : 48.0 KHz
Bit depth : 16 bits
Compression mode : Lossy
Stream size : 138 MiB (4%)
Title : Dub («Мосфильм-Мастер» по заказу Cinema Vision, 2004 г.)
Language : Russian
Default : Yes
Forced : No
Audio #2
ID : 3
Format : AC-3
Format/Info : Audio Coding 3
Mode extension : CM (complete main)
Codec ID : A_AC3
Duration : 1h 40mn
Bit rate mode : Constant
Bit rate : 448 Kbps
Channel(s) : 6 channels
Channel positions : Front: L C R, Side: L R, LFE
Sampling rate : 48.0 KHz
Bit depth : 16 bits
Compression mode : Lossy
Stream size : 323 MiB (9%)
Title : Original
Language : French
Default : No
Forced : No
Text
ID : 4
Format : UTF-8
Codec ID : S_TEXT/UTF8
Codec ID/Info : UTF-8 Plain Text
Language : Russian
Default : No
Forced : No

Скриншоты

Скриншоты анаморфные

Скачать

Скачать торрент!

Как скачивать? · Что такое торрент? · Рейтинг и ограничения

Сайт не распространяет и не хранит электронные версии произведений, а лишь предоставляет доступ к создаваемому пользователями каталогу ссылок на торрент-файлы, которые содержат только списки хеш-сумм

[Профиль] [ЛС]
Показать сообщения:    
Ответить на тему

Текущее время: Сегодня 00:10

Часовой пояс: GMT + 4



Вы не можете начинать темы
Вы не можете отвечать на сообщения
Вы не можете редактировать свои сообщения
Вы не можете удалять свои сообщения
Вы не можете голосовать в опросах
Вы не можете прикреплять файлы к сообщениям
Вы не можете скачивать файлы