Мошенничество / Swindle (Джонатан Джадж / Jonathan Judge) [2013, США,Канада, Комедия, WEB-DL 720p] Dub (SDI Media) + Original Eng

Ответить на тему
 
Автор Сообщение

user ®

Стаж: 7 лет 7 месяцев

Сообщений: 20008

Пост Пост: #1 от 28-Янв-2014 01:05

[Цитировать]

Мошенничество / Swindle
Страна: США,Канада
Жанр: Комедия
Год выпуска: 2013
Продолжительность: 01:31:46
Перевод: Профессиональный (дублированный) SDI Media
Cубтитры: нет
Оригинальная аудиодорожка: английский
Режиссер: Джонатан Джадж / Jonathan Judge
В ролях: Ноа Кроуфорд, Крис О'Нил, Дженнетт МакКерди, Сиара Браво, Ариана Гранде, Ноа Манк, Фред Эваньюик, Сэнди Робсон, Клаудио Энкарнасьон Монтеро, Табита Сент-Джермэйн
Описание: Бен и Гриффин находят старую бейсбольную карточку Хонуса Вагнера и решают продать её, чтобы Бену не пришлось выселяться из своего дома. Они отправляются в магазин для коллекционеров, которым владеет парень по имени Мошеннилл. После долгих торгов хозяин магазина соглашается заплатить ребятам за карточку 300 долларов. Гордясь собой, ребята отправляются домой, но позже они узнают, что эта карточка стоит намного больше - на целых 1,2 миллиона. Гриффина и Бена обманули. Теперь Гриффин Бинг хочет обмануть самого мошенника и вернуть себе карточку, которой тот завладел столь нечестным образом. Всеобщий любимец, он собирает команду, чтобы провернуть свою затею...
Сэмпл: http://multi-up.com/944589
Тип релиза: WEB-DL 720p
Контейнер: MKV
Видео: AVC, NTSC, 1280x718, 16:9, ~4066 kbps, 23.976 fps
Аудио: Русский, AC-3, 2 ch, 48kHz, 192 kbps
Аудио 2: English, AC-3, 6 ch, 48 kHz, 384 kbps

MediaInfo

Общее
Уникальный идентификатор : 253719779123244193475781350695701055960 (0xBEE0A6EA1B3003D0A0BAB74D7F7009D8)
Полное имя : D:\Видео\Swindle.2013.720p.WEB-DL.mkv
Формат : Matroska
Версия формата : Version 4 / Version 2
Размер файла : 3,04 Гбайт
Продолжительность : 1 ч. 31 м.
Общий поток : 4736 Кбит/сек
Дата кодирования : UTC 2014-01-26 22:33:59
Программа кодирования : mkvmerge v6.7.0 ('Back to the Ground') 32bit built on Jan 8 2014 15:03:17
Библиотека кодирования : libebml v1.3.0 + libmatroska v1.4.1
Видео
Идентификатор : 1
Формат : AVC
Формат/Информация : Advanced Video Codec
Профиль формата : High@L3.1
Параметр CABAC формата : Нет
Параметр ReFrames формата : 2 кадра
Идентификатор кодека : V_MPEG4/ISO/AVC
Продолжительность : 1 ч. 31 м.
Битрейт : 4066 Кбит/сек
Ширина : 1280 пикселей
Высота : 718 пикселей
Соотношение сторон : 16:9
Режим частоты кадров : Постоянный
Частота кадров : 23,976 кадра/сек
Цветовое пространство : YUV
Субдискретизация насыщенности : 4:2:0
Битовая глубина : 8 бит
Тип развёртки : Прогрессивная
Бит/(Пиксели*Кадры) : 0.185
Размер потока : 2,61 Гбайт (86%)
Язык : English
Default : Да
Forced : Нет
Основные цвета : BT.709
Характеристики трансфера : BT.709
Коэффициенты матрицы : BT.709
Аудио #1
Идентификатор : 2
Формат : AC-3
Формат/Информация : Audio Coding 3
Расширение режима : CM (complete main)
Параметр Endianness формата : Big
Идентификатор кодека : A_AC3
Продолжительность : 1 ч. 31 м.
Вид битрейта : Постоянный
Битрейт : 192 Кбит/сек
Каналы : 2 канала
Расположение каналов : Front: L R
Частота : 48,0 КГц
Битовая глубина : 16 бит
Метод сжатия : С потерями
Задержка видео : 28 мс.
Размер потока : 126 Мбайт (4%)
Заголовок : Nickelodeon 2.0
Язык : Russian
Default : Да
Forced : Нет
Аудио #2
Идентификатор : 3
Формат : AC-3
Формат/Информация : Audio Coding 3
Расширение режима : CM (complete main)
Параметр Endianness формата : Big
Идентификатор кодека : A_AC3
Продолжительность : 1 ч. 31 м.
Вид битрейта : Постоянный
Битрейт : 384 Кбит/сек
Каналы : 6 каналов
Расположение каналов : Front: L C R, Side: L R, LFE
Частота : 48,0 КГц
Битовая глубина : 16 бит
Метод сжатия : С потерями
Задержка видео : 10 мс.
Размер потока : 252 Мбайт (8%)
Заголовок : Original 5.1
Язык : English
Default : Нет
Forced : Нет

Скриншоты






Скачать

Скачать торрент!

Как скачивать? · Что такое торрент? · Рейтинг и ограничения

Сайт не распространяет и не хранит электронные версии произведений, а лишь предоставляет доступ к создаваемому пользователями каталогу ссылок на торрент-файлы, которые содержат только списки хеш-сумм

[Профиль] [ЛС]
Показать сообщения:    
Ответить на тему

Текущее время: Сегодня 07:53

Часовой пояс: GMT + 4



Вы не можете начинать темы
Вы не можете отвечать на сообщения
Вы не можете редактировать свои сообщения
Вы не можете удалять свои сообщения
Вы не можете голосовать в опросах
Вы не можете прикреплять файлы к сообщениям
Вы не можете скачивать файлы