За кадром... / In a World... (Лэйк Белл / Lake Bell) [2013, США, комедия, BDRip 720p] MVO (R2) + Original (Eng) + Sub (Eng)

Ответить на тему
 
Автор Сообщение

user ®

Стаж: 7 лет 7 месяцев

Сообщений: 20008

Пост Пост: #1 от 28-Янв-2014 01:05

[Цитировать]

За кадром... / In a World...«Speak up and let your voice be heard»- Страна: США
Жанр: комедия
Год выпуска: 2013
Продолжительность: 01:32:58-Перевод: Профессиональный (многоголосый, закадровый) R2
Оригинальная аудиодорожка №1: English
Оригинальная аудиодорожка №2: English Commentary with Writer/Director/Actor Lake Bell
Cубтитры: English-Режиссер: Лэйк Белл / Lake Bell
В ролях: Лэйк Белл, Роб Кордри, Александра Холден, Ева Лонгория, Кен Марино, Деметри Мартин, Фред Меламед, Тиг Нотаро, Ник Офферман, Михаэлла Уоткинс-Описание: Завязка сюжета могла прийти в голову только человеку с кинематографическим стажем: Лэйк играет тренера по речи и специалиста по озвучке трейлеров Кэрол. Отец ее героини Сэм Сото — звезда цеха и домашний тиран, отказывающий Кэрол от отчего дома, дабы освободить место для своей 30-летней подружки. Война отцов и детей переносится на оба фронта — личный и профессиональный — когда Кэрол вступает в бой за право озвучивать трейлеры «Амазонских игр».-IMDB | КиноПоиск | Сэмпл-Качество видео: BDRip 720p | исх. In.A.World.2013.COMPLETE.BLURAY-LAZERS
Формат видео: MKV-Видео: 1280x534 at 23.976 fps, x264@L4.1, 2pass ~6200 kbps avg
Аудио №1: 48 kHz/16-bit, DTS, 3/2 (L,C,R,l,r) + LFE ch, ~1536.00 kbps avg | Профессиональный (многоголосый, закадровый) R2
Аудио №2: 48 kHz/16-bit, DTS, 3/2 (L,C,R,l,r) + LFE ch, ~1536.00 kbps avg | English
Аудио №3: 48 kHz, AC3, 2/0 (L,R) ch, ~192.00 kbps avg | English Commentary-Формат субтитров: softsub (srt)
Главы: есть-

MediaInfo

General
Unique ID : 216841922010751646157348044415564096377 (0xA3223C2E323D66B49084648B9AD5A379)
Complete name : D:\Фильмы\In.A.World.2013.LiMiTED.720p.BluRay.DTS.Rus.2xEng.HDCLUB.mkv
Format : Matroska
Format version : Version 2
File size : 6.11 GiB
Duration : 1h 32mn
Overall bit rate : 9 410 Kbps
Movie name : In a World... (2013) - Release for HDCLUB
Encoded date : UTC 2014-01-23 10:10:15
Writing application : mkvmerge v3.4.0 ('Rapunzel') built on May 15 2010 09:38:20
Writing library : libebml v0.8.0 + libmatroska v0.9.0
Video
ID : 1
Format : AVC
Format/Info : Advanced Video Codec
Format profile : High@L4.1
Format settings, CABAC : Yes
Format settings, ReFrames : 12 frames
Codec ID : V_MPEG4/ISO/AVC
Duration : 1h 32mn
Bit rate : 6 200 Kbps
Width : 1 280 pixels
Height : 534 pixels
Display aspect ratio : 2.40:1
Frame rate mode : Constant
Frame rate : 23.976 fps
Color space : YUV
Chroma subsampling : 4:2:0
Bit depth : 8 bits
Scan type : Progressive
Bits/(Pixel*Frame) : 0.378
Stream size : 3.91 GiB (64%)
Title : In a World... (2013) - Release for HDCLUB
Writing library : x264 core 133 r2334 a3ac64b
Encoding settings : cabac=1 / ref=12 / deblock=1:-3:-3 / analyse=0x3:0x113 / me=umh / subme=9 / psy=1 / psy_rd=1.05:0.00 / mixed_ref=1 / me_range=16 / chroma_me=1 / trellis=2 / 8x8dct=1 / cqm=0 / deadzone=21,11 / fast_pskip=0 / chroma_qp_offset=-2 / threads=3 / lookahead_threads=1 / sliced_threads=0 / nr=0 / decimate=0 / interlaced=0 / bluray_compat=0 / constrained_intra=0 / bframes=10 / b_pyramid=2 / b_adapt=2 / b_bias=0 / direct=3 / weightb=1 / open_gop=0 / weightp=2 / keyint=250 / keyint_min=23 / scenecut=40 / intra_refresh=0 / rc=2pass / mbtree=0 / bitrate=6200 / ratetol=1.0 / qcomp=0.60 / qpmin=0 / qpmax=69 / qpstep=4 / cplxblur=20.0 / qblur=0.5 / ip_ratio=1.40 / pb_ratio=1.30 / aq=1:0.60
Language : English
Default : Yes
Forced : No
Audio #1
ID : 2
Format : DTS
Format/Info : Digital Theater Systems
Mode : 16
Format settings, Endianness : Big
Codec ID : A_DTS
Duration : 1h 32mn
Bit rate mode : Constant
Bit rate : 1 509 Kbps
Channel count : 6 channels
Channel positions : Front: L C R, Side: L R, LFE
Sampling rate : 48.0 KHz
Bit depth : 16 bits
Compression mode : Lossy
Stream size : 1 004 MiB (16%)
Title : DTS 5.1 @ 1536 kbps - MVO, R2
Language : Russian
Default : Yes
Forced : No
Audio #2
ID : 3
Format : DTS
Format/Info : Digital Theater Systems
Mode : 16
Format settings, Endianness : Big
Codec ID : A_DTS
Duration : 1h 32mn
Bit rate mode : Constant
Bit rate : 1 509 Kbps
Channel count : 6 channels
Channel positions : Front: L C R, Side: L R, LFE
Sampling rate : 48.0 KHz
Bit depth : 16 bits
Compression mode : Lossy
Stream size : 1 004 MiB (16%)
Title : DTS 5.1 @ 1536 kbps
Language : English
Default : No
Forced : No
Audio #3
ID : 4
Format : AC-3
Format/Info : Audio Coding 3
Format profile : Dolby Digital
Mode extension : CM (complete main)
Format settings, Endianness : Big
Codec ID : A_AC3
Duration : 1h 32mn
Bit rate mode : Constant
Bit rate : 192 Kbps
Channel count : 2 channels
Channel positions : Front: L R
Sampling rate : 48.0 KHz
Bit depth : 16 bits
Compression mode : Lossy
Stream size : 128 MiB (2%)
Title : AC3 2.0 @ 192 kbps - Commentary with Writer/Director/Actor Lake Bell
Language : English
Default : No
Forced : No
Text
ID : 5
Format : UTF-8
Codec ID : S_TEXT/UTF8
Codec ID/Info : UTF-8 Plain Text
Language : English
Default : No
Forced : No
Menu
00:00:00.000 : en:00:00:00.000
00:10:13.738 : en:00:10:13.738
00:16:15.474 : en:00:16:15.474
00:21:09.185 : en:00:21:09.185
00:25:32.573 : en:00:25:32.573
00:30:58.565 : en:00:30:58.565
00:37:32.750 : en:00:37:32.750
00:43:17.762 : en:00:43:17.762
00:47:28.345 : en:00:47:28.345
00:53:36.797 : en:00:53:36.797
01:01:49.706 : en:01:01:49.706
01:05:59.455 : en:01:05:59.455
01:09:57.527 : en:01:09:57.527
01:14:01.354 : en:01:14:01.354
01:18:09.143 : en:01:18:09.143
01:22:22.312 : en:01:22:22.312

Скриншоты

Дополнительно

Сохранены оригинальные чаптеры как на Blu-ray.
За выделение голосов с DVD R2 спасибо Nez, за диск друзьям из Европы.
Рип от EbP
Скачать

Скачать торрент!

Как скачивать? · Что такое торрент? · Рейтинг и ограничения

Сайт не распространяет и не хранит электронные версии произведений, а лишь предоставляет доступ к создаваемому пользователями каталогу ссылок на торрент-файлы, которые содержат только списки хеш-сумм

[Профиль] [ЛС]
Показать сообщения:    
Ответить на тему

Текущее время: Сегодня 09:54

Часовой пояс: GMT + 4



Вы не можете начинать темы
Вы не можете отвечать на сообщения
Вы не можете редактировать свои сообщения
Вы не можете удалять свои сообщения
Вы не можете голосовать в опросах
Вы не можете прикреплять файлы к сообщениям
Вы не можете скачивать файлы