Школа снеговиков. 2 серии: Дед Мороз из Дедморозовки. Хоккей в Дедморозовке. (Александр Маркелов) [2010-2011, Мультфильм, WEBRip]

Ответить на тему
 
Автор Сообщение

user ®

Стаж: 7 лет 7 месяцев

Сообщений: 20008

Пост Пост: #1 от 27-Янв-2014 18:45

[Цитировать]

Школа снеговиков. 2 серии: Дед Мороз из Дедморозовки. Хоккей в Дедморозовке.
Страна: Россия
Жанр: Мультфильм
Продолжительность: 00:13:14 + 00:13:32
Год выпуска: 2010-2011
Режиссёр: Александр Маркелов
Автор сценария: Андрей Усачев
Роли озвучивали: Лариса Брохман, Елена Низовитина, Александр Пожаров, Александр Пинегин, Александр Сичкарь, Алексей Емцов.
Описание: Далеко на Севере, где-то в Архангельской или Вологодской области, есть невидимая деревня Дедморозовка. Невидимая, потому что накрыта она волшебным невидимым покрывалом. В этой деревне и проводит большую часть времени Дед Мороз и его внучка Снегурочка. А еще там живут помощники Деда Мороза снеговики и снеговички. «На самом крайнем Севере, чудес и тайн полна, среди лесов затеряна, деревня есть одна…»
Семпл: http://multi-up.com/944649
Качество: WEBRip
Формат: AVI
Видео: Xvid 576x432 25fps 1108Kbps
Аудио: Dolby AC3 48000Hz 96kbps

Подробные технические данные

VideoID : 0Format : MPEG-4 VisualFormat profile : Advanced Simple@L5Format settings, BVOP : YesFormat settings, QPel : NoFormat settings, GMC : No warppointsFormat settings, Matrix : CustomCodec ID : XVIDCodec ID/Hint : XviDDuration : 13mn 13sBit rate : 1 108 KbpsWidth : 576 pixelsHeight : 432 pixelsDisplay aspect ratio : 4:3Frame rate : 25.000 fpsColor space : YUVChroma subsampling : 4:2:0Bit depth : 8 bitsScan type : ProgressiveCompression mode : LossyBits/(Pixel*Frame) : 0.178Stream size : 105 MiB (91%)Writing library : XviD 64
AudioID : 1Format : AC-3Format/Info : Audio Coding 3Mode extension : CM (complete main)Format settings, Endianness : BigCodec ID : 2000Duration : 13mn 13sBit rate mode : ConstantBit rate : 96.0 KbpsChannel(s) : 1 channelChannel positions : Front: CSampling rate : 48.0 KHzBit depth : 16 bitsCompression mode : LossyStream size : 9.08 MiB (8%)Alignment : Split accross interleavesInterleave, duration : 40 ms (1.00 video frame)Interleave, preload duration : 500 ms

Скриншоты Часть 1. Дед Мороз из Дедморозовки

Скриншоты Часть 2. Хоккей в Дедморозовке

Скачать

Скачать торрент!

Как скачивать? · Что такое торрент? · Рейтинг и ограничения

Сайт не распространяет и не хранит электронные версии произведений, а лишь предоставляет доступ к создаваемому пользователями каталогу ссылок на торрент-файлы, которые содержат только списки хеш-сумм

[Профиль] [ЛС]
Показать сообщения:    
Ответить на тему

Текущее время: Сегодня 03:57

Часовой пояс: GMT + 4



Вы не можете начинать темы
Вы не можете отвечать на сообщения
Вы не можете редактировать свои сообщения
Вы не можете удалять свои сообщения
Вы не можете голосовать в опросах
Вы не можете прикреплять файлы к сообщениям
Вы не можете скачивать файлы