Воспоминания / Memories (Джиту Джозеф / Jeethu Joseph) [2013, Индия, триллер, детектив, драма, DVDRip] DVO + Sub Rus

Ответить на тему
 
Автор Сообщение

user ®

Стаж: 12 лет

Сообщений: 15092

Пост Пост: #1 от 27-Янв-2014 18:45

[Цитировать]

Воспоминания / Memories
Страна: Индия (Anantha Vision)
Жанр: триллер, детектив, драма
Год выпуска: 2013
Продолжительность: 2:23:54
Перевод: Любительский (двухголосый закадровый)
Cубтитры: русские
Режиссер: Джиту Джозеф / Jeethu Joseph
В ролях: Притхвирадж, Мегна Радж, Рахул Мадхав, Недумуди Вену, Миа Джордж, Суреш Кришна
Описание: Сэм Алекс, некогда один из лучших полицейских в управлении, теперь каждое утро встречает у алкогольной лавки. Но кто осудит того, кто стал свидетелем гибели своей семьи? Кажется, ничто не может вернуть к жизни человека, у которого ничего нет, кроме воспоминаний. Но однажды его начальник и друг семьи просит помочь в расследовании дела, которое потрясло город, и потому, что Сэм - лучший в профессии, и потому, что, быть может, это вернет ему хоть каплю интереса к жизни.
Качество видео: DVDRip
Формат видео: AVI
Видео: XviD, 910 kbps, 23.976 fps, 688x288
Аудио: mp3, 44100 Hz, 192 kbps, 2 channel
Формат субтитров: softsub (SRT)
Доп. информация о субтитрах: только в песнях
Сэмпл: http://www.sendspace.com/file/yzi69l

MediaInfo

General
Complete name : D:\Фильмы\Memories.2013.DVDRip\Memories.2013.DVDRip.avi
Format : AVI
Format/Info : Audio Video Interleave
File size : 1.12 GiB
Duration : 2h 23mn
Overall bit rate : 1 111 Kbps
Writing library : VirtualDub build 34753/release
Video
ID : 0
Format : MPEG-4 Visual
Format profile : Simple@L3
Format settings, BVOP : No
Format settings, QPel : No
Format settings, GMC : No warppoints
Format settings, Matrix : Default (H.263)
Codec ID : XVID
Codec ID/Hint : XviD
Duration : 2h 23mn
Bit rate : 910 Kbps
Width : 688 pixels
Height : 288 pixels
Display aspect ratio : 2.40:1
Frame rate : 23.976 fps
Color space : YUV
Chroma subsampling : 4:2:0
Bit depth : 8 bits
Scan type : Progressive
Compression mode : Lossy
Bits/(Pixel*Frame) : 0.192
Stream size : 937 MiB (82%)
Writing library : XviD 1.1.2 (UTC 2006-11-01)
Audio
ID : 1
Format : MPEG Audio
Format version : Version 1
Format profile : Layer 3
Codec ID : 55
Codec ID/Hint : MP3
Duration : 2h 23mn
Bit rate mode : Constant
Bit rate : 192 Kbps
Channel(s) : 2 channels
Sampling rate : 44.1 KHz
Compression mode : Lossy
Stream size : 198 MiB (17%)
Alignment : Split accross interleaves
Interleave, duration : 42 ms (1.00 video frame)
Interleave, preload duration : 500 ms

Скриншот c названием фильма

Скриншоты


Скачать

Скачать торрент! Воспоминания / Memories (Джиту Джозеф / Jeethu Joseph) [2013, Индия, триллер, детектив, драма, DVDRip] DVO + Sub Rus

Как скачивать? · Что такое торрент? · Рейтинг и ограничения

Сайт не распространяет и не хранит электронные версии произведений, а лишь предоставляет доступ к создаваемому пользователями каталогу ссылок на торрент-файлы, которые содержат только списки хеш-сумм

[Профиль] [ЛС]
Показать сообщения:    
Ответить на тему

Текущее время: Сегодня 05:51

Часовой пояс: GMT + 4



Вы не можете начинать темы
Вы не можете отвечать на сообщения
Вы не можете редактировать свои сообщения
Вы не можете удалять свои сообщения
Вы не можете голосовать в опросах
Вы не можете прикреплять файлы к сообщениям
Вы не можете скачивать файлы