Платиновые данные / Platina Data / Puratina Deta (Кэйси Охтомо / Keishi Ohtomo) [2013, Япония, детектив, BDRip] Sub (Rus) + Original (jap)

Ответить на тему
 
Автор Сообщение

user ®

Стаж: 11 лет

Сообщений: 15151

Пост Пост: #1 от 27-Янв-2014 09:25

[Цитировать]

Платиновые данные / Platina Data / Puratina Deta
Страна: Япония
Жанр: детектив
Год выпуска: 2013
Продолжительность: 02:13:33-Cубтитры: русские (отдельно, srt)
Оригинальная аудиодорожка: японский-Режиссер: Кэйси Охтомо / Keishi Ohtomo
В ролях: Кадзунари Ниномия, Эцуси Тоёкава, Хонами Судзуки, Кацуъхиса Намасэ, Аннэ Ватанабэ-Описание: 2017 год: японское правительство пытается тайно контролировать ДНК своего народа. Рюхэй Кагура является одним из лучших ученых в области анализа ДНК. Он работает в исследовательском учреждении, которое контролирует национальное полицейское агентство.
Когда убивают изобретателя системы анализа ДНК, на месте убийства находят ДНК Кагуры. Став главным подозреваемым, он вынужден бежать. Детектив Рейджи Асама начинает погоню.- -Качество видео: BDRip (BD50)
Формат видео: AVI
Видео: XviD, 720x304 (2.37:1), 23.976 fps, 1400 kbps avg, 0.27 bit/pixel
Аудио: Японский MPEG layer 3, 48 kHz, 2 ch, 160 kbps-

Доп. информация

Переводчик: Ками
Рип: Public Enemy (((
Постер: Public Enemy (((

Пример субтитров

1
00:00:15,190 --> 00:00:20,250
В ближайшие годы
2
00:00:29,390 --> 00:00:30,950
Эй! Сюда?
3
00:00:50,390 --> 00:01:10,950
Перевод Виталий Королёв aka Kami
4
00:02:09,390 --> 00:02:10,360
Да?
5
00:02:10,460 --> 00:02:12,290
Возвращайся в участок.
6
00:02:12,390 --> 00:02:13,590
У нас есть подозреваемый.
7
00:02:23,590 --> 00:02:25,790
Национальное полицейское управление
8
00:02:37,590 --> 00:02:38,950
Наконец-то ты здесь.
9
00:02:39,820 --> 00:02:43,120
Все детали объясню позже.
Надень галстук.
10
00:02:44,430 --> 00:02:46,480
Ты единственный, кто исследовал место преступления.
11
00:02:59,970 --> 00:03:01,340
Ещё раз...
12
00:03:01,440 --> 00:03:05,140
Меня зовут Сига.
Я возглавляю специальный аналитический научно-исследовательский институт.
13
00:03:05,980 --> 00:03:08,810
Это Кагура, наш системный разработчик.
14
00:03:09,750 --> 00:03:16,420
Сейчас он представит нам отчёт по прецедентному делу 01,
нашей новой исследовательской системы ДНК.
15
00:03:20,930 --> 00:03:25,430
Серийные похищения и убийства детей, произошедшие в районах Ота и Кото.
16
00:03:26,770 --> 00:03:29,600
Волосы, которые, как предполагали, принадлежали убийце...
17
00:03:29,700 --> 00:03:33,000
... которые были на полиэтиленовом пакете на второй жертве.
18
00:03:34,410 --> 00:03:36,780
Это результат анализа ДНК.
19
00:03:39,750 --> 00:03:40,910
Кагура.
20
00:03:42,220 --> 00:03:43,880
Согласно ДНК профилированию...
21
00:03:43,990 --> 00:03:51,790
... убийца - мужчина, возраст 25-35 лет,
группа крови первая, резус положительный, рост 180-185 см.
22
00:03:51,960 --> 00:03:55,450
Худощавый, широкоплечий, руки длиной около 20 см.
23
00:03:55,560 --> 00:03:58,960
Размер обуви 42, может быть меньше.
24
00:03:59,070 --> 00:04:00,690
Бледнокожий.
25
00:04:01,200 --> 00:04:04,140
Тонкие брови и ресницы.
26
00:04:04,410 --> 00:04:05,960
Большой рот, тонкие губы.
27
00:04:06,070 --> 00:04:08,910
Широколицый, кадык с выступающим адамовым яблоком.
28
00:04:09,010 --> 00:04:10,880
Вероятно, светло-карие глаза.
29
00:04:10,980 --> 00:04:13,110
Возможно, близорукий.
30
00:04:13,480 --> 00:04:15,880
Без врождённых болезней.
31
00:04:16,250 --> 00:04:19,680
Основываясь на данных результатах,
мы составили его лицо с помощью
32
00:04:20,790 --> 00:04:22,090
ДНК монтажа.
33
00:04:29,360 --> 00:04:33,230
То, что вы видите на экране, это лицо серийного убийцы.
34
00:04:44,510 --> 00:04:47,880
"Большой рот, тонкие губы..."
35
00:04:48,280 --> 00:04:52,150
"Широколицый, с выступающим адамовым яблоком".
36
00:05:06,630 --> 00:05:08,400
Токура, попросить его пойти с нами.
37
00:05:08,900 --> 00:05:11,100
Все остальные, будьте наготове, если он побежит.
38
00:05:23,350 --> 00:05:24,580
Хорошо.
39
00:05:37,530 --> 00:05:40,470
Кроме того, по его ДНК мы выяснили,
40
00:05:40,570 --> 00:05:44,500
что убийца третий кузен леди Икуэ Ямаситы из района Кото.
41
00:05:59,590 --> 00:06:01,350
Вы Юта Кувабара?
42
00:06:07,030 --> 00:06:08,260
Он убегает!
43
00:06:10,100 --> 00:06:11,760
Ещё кое-что для информации,
44
00:06:12,000 --> 00:06:14,700
... у него робкий характер и он трус.
45
00:06:14,800 --> 00:06:18,760
Обладает сильным самосохранением, но низкой выносливостью, и он легко поддаётся панике.
46
00:06:18,870 --> 00:06:19,970
Стоять!
47
00:06:20,070 --> 00:06:21,770
Пожалуйста, успокойтесь все!
48
00:06:21,880 --> 00:06:23,430
Защитите детей!
49
00:06:24,980 --> 00:06:26,040
Отвяжитесь!
50
00:06:28,120 --> 00:06:28,980
Не подходите!

MediaInfo

Format : AVI
Format/Info : Audio Video Interleave
File size : 1.46 GiB
Duration : 2h 13mn
Overall bit rate : 1 570 Kbps
Writing application : VirtualDubMod 1.5.10.3 | www.virtualdub-fr.org || (build 2550/release)
Writing library : VirtualDubMod build 2550/release
Video
ID : 0
Format : MPEG-4 Visual
Format profile : Advanced Simple@L5
Format settings, BVOP : 1
Format settings, QPel : No
Format settings, GMC : No warppoints
Format settings, Matrix : Custom
Codec ID : XVID
Codec ID/Hint : XviD
Duration : 2h 13mn
Bit rate : 1 401 Kbps
Width : 720 pixels
Height : 304 pixels
Display aspect ratio : 2.35:1
Frame rate : 23.976 fps
Color space : YUV
Chroma subsampling : 4:2:0
Bit depth : 8 bits
Scan type : Progressive
Compression mode : Lossy
Bits/(Pixel*Frame) : 0.267
Stream size : 1.31 GiB (89%)
Writing library : XviD 73
Audio
ID : 1
Format : MPEG Audio
Format version : Version 1
Format profile : Layer 3
Codec ID : 55
Codec ID/Hint : MP3
Duration : 2h 13mn
Bit rate mode : Constant
Bit rate : 160 Kbps
Channel(s) : 2 channels
Sampling rate : 48.0 KHz
Compression mode : Lossy
Stream size : 153 MiB (10%)
Alignment : Aligned on interleaves
Interleave, duration : 42 ms (1.00 video frame)
Interleave, preload duration : 504 ms

Скриншот с названием

Скриншоты

Скачать

Скачать торрент! Платиновые данные / Platina Data / Puratina Deta (Кэйси Охтомо / Keishi Ohtomo) [2013, Япония, детектив, BDRip] Sub (Rus) + Original (jap)

Как скачивать? · Что такое торрент? · Рейтинг и ограничения

Сайт не распространяет и не хранит электронные версии произведений, а лишь предоставляет доступ к создаваемому пользователями каталогу ссылок на торрент-файлы, которые содержат только списки хеш-сумм

[Профиль] [ЛС]
Показать сообщения:    
Ответить на тему

Текущее время: Сегодня 04:11

Часовой пояс: GMT + 4



Вы не можете начинать темы
Вы не можете отвечать на сообщения
Вы не можете редактировать свои сообщения
Вы не можете удалять свои сообщения
Вы не можете голосовать в опросах
Вы не можете прикреплять файлы к сообщениям
Вы не можете скачивать файлы