Крриш 3 / Krrish 3 (Ракеш Рошан / Rakesh Roshan) [2013, Индия, фантастика, боевик, HDRip] MVO ([ICG]) + Sub Rus + Original

Ответить на тему
 
Автор Сообщение

user ®

Стаж: 12 лет

Сообщений: 15092

Пост Пост: #1 от 27-Янв-2014 03:05

[Цитировать]

Крриш 3 / Krrish 3
Страна: Индия
Жанр: фантастика, боевик
Год выпуска: 2013
Продолжительность: 02:33:14
Перевод: Любительский (многоголосый закадровый) IndianCinemaGroup [ICG]
Cубтитры: Pусские (полные, песни) [перевод: tonyvika ]
Оригинальная аудиодорожка: английский / Хинди [Индийский акцент английского языка]
Режиссер: Ракеш Рошан / Rakesh Roshan
В ролях: Приянка Чопра, Ритик Рошан, Амитабх Баччан, Насируддин Шах, Кангана Ранаут, Вивек Оберой, Раджпал Ядав, Мохниш Бехл, Сачин Кхедекар, Ариф Закария
Описание: После победы над злодеем Доктором Сидхартом Арья, и возвращения его отца Рохита, воскресшего из мертвых, Крриш продолжает бороться против зла и спасать невинные жизни. Теперь Кришна живет жизнью в счастливом браке с Прией, в то время как Рохит использует свои научные данные на благо общества. И Крриш — любимый супергерой каждого спасённого. Им неизвестно, что темная сила растет в другой части мира. Каал, злобный гений, эгоистично злоупотребляющий свои силы, чтобы посеять страх, смерть и разрушение. И он пользуется поддержкой армии очень опасных существ, которых он создал сам. Вскоре планы Каала приведены в действие, Рохит и Крриш оказываются перед лицом кризиса эпических масштабов, которые только они могут решить вместе. Когда же наконец их пути пересеклись с Каалом и его армией, ни один из них не был готов к тому, что ждёт их впереди. Каал, не только приводит мир на грань катастрофы, он также ставит на прочность силу и любовь к Кришне и его семьи. И Крриш должен каким-то образом найти силу внутри к лицу непобедимого врага. Величайшая битва между добром и злом.
Качество видео: HDRip (исходник неизвестен)
Формат видео: AVI
Видео: 720x304 (2.37:1), 24 fps, XviD build 50 ~1 868 Kbps Kb/s avg, 0.36 bit/pixel
Аудио: Russian:48 kHz, AC3 Dolby Digital, 2/0 (L,R) ch, ~448 kbps
Аудио 2: English-Hindi: 48 kHz, AC3 Dolby Digital, 2/0 (L,R) ch, ~224 kbps
Формат субтитров: softsub (SRT)
Доп. информация:

MediaInfo

General
Complete name : E:\bd2\DVDRips\Krrish.3.2013.L.HDRip.2800Mb.avi
Format : AVI
Format/Info : Audio Video Interleave
Format profile : OpenDML
File size : 2.74 GiB
Duration : 2h 33mn
Overall bit rate : 2 556 Kbps
Writing application : VirtualDubMod 1.5.10.3 | www.virtualdub-fr.org || (build 2550/release)
Writing library : VirtualDubMod build 2550/release
Video
ID : 0
Format : MPEG-4 Visual
Format profile : Advanced Simple@L5
Format settings, BVOP : 1
Format settings, QPel : No
Format settings, GMC : No warppoints
Format settings, Matrix : Custom
Codec ID : XVID
Codec ID/Hint : XviD
Duration : 2h 33mn
Bit rate : 1 868 Kbps
Width : 720 pixels
Height : 304 pixels
Display aspect ratio : 2.35:1
Frame rate : 24.000 fps
Color space : YUV
Chroma subsampling : 4:2:0
Bit depth : 8 bits
Scan type : Progressive
Compression mode : Lossy
Bits/(Pixel*Frame) : 0.356
Stream size : 2.00 GiB (73%)
Writing library : XviD 1.2.1 (UTC 2008-12-04)
Audio #1
ID : 1
Format : AC-3
Format/Info : Audio Coding 3
Mode extension : CM (complete main)
Format settings, Endianness : Big
Codec ID : 2000
Duration : 2h 33mn
Bit rate mode : Constant
Bit rate : 448 Kbps
Channel(s) : 2 channels
Channel positions : Front: L R
Sampling rate : 48.0 KHz
Bit depth : 16 bits
Compression mode : Lossy
Stream size : 491 MiB (18%)
Alignment : Split accross interleaves
Interleave, duration : 42 ms (1.00 video frame)
Interleave, preload duration : 500 ms
Audio #2
ID : 2
Format : AC-3
Format/Info : Audio Coding 3
Mode extension : CM (complete main)
Format settings, Endianness : Big
Codec ID : 2000
Duration : 2h 33mn
Bit rate mode : Constant
Bit rate : 224 Kbps
Channel(s) : 2 channels
Channel positions : Front: L R
Sampling rate : 48.0 KHz
Bit depth : 16 bits
Compression mode : Lossy
Stream size : 246 MiB (9%)
Alignment : Split accross interleaves
Interleave, duration : 42 ms (1.00 video frame)
Interleave, preload duration : 500 ms

Скриншот c названием фильма

Скриншоты

Внимание! торрент-файл обновлен 26-Янв-14 20:13
Скачать

Скачать торрент! Крриш 3 / Krrish 3 (Ракеш Рошан / Rakesh Roshan) [2013, Индия, фантастика, боевик, HDRip] MVO ([ICG]) + Sub Rus + Original

Как скачивать? · Что такое торрент? · Рейтинг и ограничения

Сайт не распространяет и не хранит электронные версии произведений, а лишь предоставляет доступ к создаваемому пользователями каталогу ссылок на торрент-файлы, которые содержат только списки хеш-сумм

[Профиль] [ЛС]
Показать сообщения:    
Ответить на тему

Текущее время: Сегодня 11:28

Часовой пояс: GMT + 4



Вы не можете начинать темы
Вы не можете отвечать на сообщения
Вы не можете редактировать свои сообщения
Вы не можете удалять свои сообщения
Вы не можете голосовать в опросах
Вы не можете прикреплять файлы к сообщениям
Вы не можете скачивать файлы