Полицейская академия 7: Миссия в Москве / Police Academy: Mission to Moscow (Алан Меттер / Alan Metter) [1994, США, комедия, криминал, BDRemux 1080p] 2x MVO + DVO (НТВ) + 3x AVO (Гаврилов, Гранкин, Пронин) + Sub Rus, Eng + Original Eng

Ответить на тему
 
Автор Сообщение

user ®

Стаж: 7 лет 7 месяцев

Сообщений: 20008

Пост Пост: #1 от 26-Янв-2014 20:25

[Цитировать]

Полицейская академия 7: Миссия в Москве / Police Academy: Mission to Moscow
-
Страна: США
Студия: Warner Bros.
Жанр: комедия, криминал
Год выпуска: 1994
Продолжительность: 01:22:41
Перевод: Профессиональный (многоголосый закадровый)
Перевод 2: Профессиональный (многоголосый закадровый) (Лазер-Видео)
Перевод 3: Профессиональный (двухголосый закадровый) (НТВ)
Перевод 4: Авторский (одноголосый закадровый) (Андрей Гаврилов)
Перевод 5: Авторский (одноголосый закадровый) (Евгений Гранкин)
Перевод 6: Авторский (одноголосый закадровый) (Антон Пронин)
Cубтитры: русские, английские
Оригинальная аудиодорожка: английский
-
Режиссер: Алан Меттер / Alan Metter
Сценарий: Рэндольф Дэвис, Мишель С. Чодос, Нил Израэл
Продюсер: Пол Масланский, Сюзанн Лоре, Леонид Верещагин
Композитор: Роберт Фолк
В ролях: Джордж Гейнс, Майкл Уинслоу, Дэвид Граф, Лесли Истербрук, Дж. У. Бейли, Кристофер Ли, Рон Перлман, Клэр Форлани, Чарли Шлэттер, Ричард Израэль
Описание: Полицейская академия в Москве! Русский балет. Русская водка. И русская мафия. Самая опасная операция в жизни полицейских академиков! Смогут ли они вернуться живыми?..
Мировая Премьера: 10 июня 1994
IMDB: http://www.imdb.com/title/tt0110857/?ref_=fn_al_tt_1
Kinopoisk: http://www.kinopoisk.ru/film/5629/
Сэмпл: http://rusfolder.com/39593055
-
Тип релиза: BDRemux 1080p
Контейнер: MKV
Видео: MPEG-4 AVC, 27931 Кбит/с, 1920x1080, 23.976 кадр/с
Аудио: Russian, AC3, 2 ch, 192 Кбит/с (Профессиональный многоголосый)
Аудио 2: Russian, AC3, 5 ch, 384 Кбит/с (Профессиональный многоголосый, Лазер-Видео)
Аудио 3: Russian, AC3, 2 ch, 192 Кбит/с (Профессиональный двухголосый, НТВ)
Аудио 4: Russian, AC3, 2 ch, 192 Кбит/с (Авторский, Андрей Гаврилов)
Аудио 5: Russian, AC3, 2 ch, 192 Кбит/с (Авторский, Евгений Гранкин)
Аудио 6: Russian, AC3, 2 ch, 192 Кбит/с (Авторский, Антон Пронин)
Аудио 7: English, DTS-HD MA, 2ch, 48 kHz, 2002 kbps, 24-bit (DTS Core: 2.0, 48 kHz, 1509 kbps, 24-bit)

MediaInfo

Общее
Уникальный идентификатор : 234863982879938411815832316423636279398 (0xB0B12862373742A7B0D9B9B6F7CC6066)
Полное имя : E:\Художественные Фильмы\Полицейская Академия\Полицейская.академия.7.Миссия.в.Москве.1994.BluRay.Remux.1080p.mkv
Формат : Matroska
Версия формата : Version 4 / Version 2
Размер файла : 18,1 Гбайт
Продолжительность : 1 ч. 22 м.
Режим общего битрейта : Переменный
Общий поток : 31,3 Мбит/сек
Дата кодирования : UTC 2014-01-23 13:28:19
Программа кодирования : mkvmerge v6.3.0 ('You can't stop me!') built on Jun 28 2013 20:09:41
Библиотека кодирования : libebml v1.3.0 + libmatroska v1.4.0
Видео
Идентификатор : 1
Формат : AVC
Формат/Информация : Advanced Video Codec
Профиль формата : High@L4.1
Параметр CABAC формата : Да
Параметр ReFrames формата : 2 кадра
Идентификатор кодека : V_MPEG4/ISO/AVC
Продолжительность : 1 ч. 22 м.
Вид битрейта : Переменный
Ширина : 1920 пикселей
Высота : 1080 пикселей
Соотношение сторон : 16:9
Режим частоты кадров : Постоянный
Частота кадров : 23,976 кадра/сек
Цветовое пространство : YUV
Субдискретизация насыщенности : 4:2:0
Битовая глубина : 8 бит
Тип развёртки : Прогрессивная
Default : Нет
Forced : Нет
Аудио #1
Идентификатор : 2
Формат : AC-3
Формат/Информация : Audio Coding 3
Расширение режима : CM (complete main)
Параметр Endianness формата : Big
Идентификатор кодека : A_AC3
Продолжительность : 1 ч. 22 м.
Вид битрейта : Постоянный
Битрейт : 192 Кбит/сек
Каналы : 2 канала
Расположение каналов : Front: L R
Частота : 48,0 КГц
Битовая глубина : 16 бит
Метод сжатия : С потерями
Размер потока : 114 Мбайт (1%)
Заголовок : Профессиональный многоголосый
Язык : Russian
Default : Да
Forced : Нет
Аудио #2
Идентификатор : 3
Формат : AC-3
Формат/Информация : Audio Coding 3
Расширение режима : CM (complete main)
Параметр Endianness формата : Big
Идентификатор кодека : A_AC3
Продолжительность : 1 ч. 22 м.
Вид битрейта : Постоянный
Битрейт : 384 Кбит/сек
Каналы : 5 каналов
Расположение каналов : Front: L C R, Side: L R
Частота : 48,0 КГц
Битовая глубина : 16 бит
Метод сжатия : С потерями
Размер потока : 227 Мбайт (1%)
Заголовок : Профессиональный (многоголосый, закадровый) Лазер-Видео
Язык : Russian
Default : Нет
Forced : Нет
Аудио #3
Идентификатор : 4
Формат : AC-3
Формат/Информация : Audio Coding 3
Расширение режима : CM (complete main)
Параметр Endianness формата : Big
Идентификатор кодека : A_AC3
Продолжительность : 1 ч. 22 м.
Вид битрейта : Постоянный
Битрейт : 192 Кбит/сек
Каналы : 2 канала
Расположение каналов : Front: L R
Частота : 48,0 КГц
Битовая глубина : 16 бит
Метод сжатия : С потерями
Размер потока : 114 Мбайт (1%)
Заголовок : Профессиональный двухголосый (НТВ)
Язык : Russian
Default : Нет
Forced : Нет
Аудио #4
Идентификатор : 5
Формат : AC-3
Формат/Информация : Audio Coding 3
Расширение режима : CM (complete main)
Параметр Endianness формата : Big
Идентификатор кодека : A_AC3
Продолжительность : 1 ч. 22 м.
Вид битрейта : Постоянный
Битрейт : 192 Кбит/сек
Каналы : 2 канала
Расположение каналов : Front: L R
Частота : 48,0 КГц
Битовая глубина : 16 бит
Метод сжатия : С потерями
Размер потока : 114 Мбайт (1%)
Заголовок : Авторский - Андрей Гаврилов
Язык : Russian
Default : Нет
Forced : Нет
Аудио #5
Идентификатор : 6
Формат : AC-3
Формат/Информация : Audio Coding 3
Расширение режима : CM (complete main)
Параметр Endianness формата : Big
Идентификатор кодека : A_AC3
Продолжительность : 1 ч. 22 м.
Вид битрейта : Постоянный
Битрейт : 192 Кбит/сек
Каналы : 2 канала
Расположение каналов : Front: L R
Частота : 48,0 КГц
Битовая глубина : 16 бит
Метод сжатия : С потерями
Размер потока : 114 Мбайт (1%)
Заголовок : Авторский - Евгений Гранкин
Язык : Russian
Default : Нет
Forced : Нет
Аудио #6
Идентификатор : 7
Формат : AC-3
Формат/Информация : Audio Coding 3
Расширение режима : CM (complete main)
Параметр Endianness формата : Big
Идентификатор кодека : A_AC3
Продолжительность : 1 ч. 22 м.
Вид битрейта : Постоянный
Битрейт : 192 Кбит/сек
Каналы : 1 канал
Расположение каналов : Front: C
Частота : 48,0 КГц
Битовая глубина : 16 бит
Метод сжатия : С потерями
Размер потока : 114 Мбайт (1%)
Заголовок : Авторский - Антон Пронин
Язык : Russian
Default : Нет
Forced : Нет
Аудио #7
Идентификатор : 8
Формат : DTS
Формат/Информация : Digital Theater Systems
Профиль формата : MA / Core
Режим : 16
Параметр Endianness формата : Big
Идентификатор кодека : A_DTS
Продолжительность : 1 ч. 22 м.
Вид битрейта : Переменный
Битрейт : Неизвестно / 1509 Кбит/сек
Каналы : 2 канала
Расположение каналов : Front: L R
Частота : 48,0 КГц
Битовая глубина : 24 бит
Метод сжатия : Без потерь / Lossy
Язык : English
Default : Нет
Forced : Нет
Текст #1
Идентификатор : 9
Формат : PGS
Режим смешивания : zlib
Идентификатор кодека : S_HDMV/PGS
Идентификатор кодека/Информация : The same subtitle format used on BDs/HD-DVDs
Язык : Russian
Default : Да
Forced : Нет
Текст #2
Идентификатор : 10
Формат : PGS
Режим смешивания : zlib
Идентификатор кодека : S_HDMV/PGS
Идентификатор кодека/Информация : The same subtitle format used on BDs/HD-DVDs
Язык : English
Default : Нет
Forced : Нет
Меню
00:00:00.000 : en:00:00:00.000
00:06:49.242 : en:00:06:49.242
00:09:50.423 : en:00:09:50.423
00:12:20.865 : en:00:12:20.865
00:13:25.847 : en:00:13:25.847
00:15:26.676 : en:00:15:26.676
00:17:49.443 : en:00:17:49.443
00:20:28.436 : en:00:20:28.436
00:23:53.641 : en:00:23:53.641
00:28:14.568 : en:00:28:14.568
00:30:32.122 : en:00:30:32.122
00:33:34.054 : en:00:33:34.054
00:35:37.677 : en:00:35:37.677
00:40:39.437 : en:00:40:39.437
00:41:31.489 : en:00:41:31.489
00:49:26.630 : en:00:49:26.630
00:57:07.090 : en:00:57:07.090
01:02:10.352 : en:01:02:10.352
01:06:43.625 : en:01:06:43.625
01:10:17.004 : en:01:10:17.004
01:14:03.022 : en:01:14:03.022
01:18:02.970 : en:01:18:02.970

Скриншоты

Скачать

Скачать торрент!

Как скачивать? · Что такое торрент? · Рейтинг и ограничения

Сайт не распространяет и не хранит электронные версии произведений, а лишь предоставляет доступ к создаваемому пользователями каталогу ссылок на торрент-файлы, которые содержат только списки хеш-сумм

[Профиль] [ЛС]
Показать сообщения:    
Ответить на тему

Текущее время: Сегодня 18:39

Часовой пояс: GMT + 4



Вы не можете начинать темы
Вы не можете отвечать на сообщения
Вы не можете редактировать свои сообщения
Вы не можете удалять свои сообщения
Вы не можете голосовать в опросах
Вы не можете прикреплять файлы к сообщениям
Вы не можете скачивать файлы