Любовь в большом городе 3 (Марюс Вайсберг, Дэвид Додсон) [2014 г., Комедия, DVDRip] [Лицензия]

Ответить на тему
 
Автор Сообщение

user ®

Стаж: 7 лет 7 месяцев

Сообщений: 20008

Пост Пост: #1 от 26-Янв-2014 17:15

[Цитировать]

Любовь в большом городе 3
-Страна: Россия
Жанр: Комедия
Год выпуска: 2014
Продолжительность: 01:18:45
Перевод: Оригинал |Лицензия|
Cубтитры: нет
Режиссёр: Марюс Вайсберг, Дэвид Додсон
В ролях: Алексей Чадов, Владимир Зеленский, Светлана Ходченкова, Вера Брежнева, Вилле Хаапасало, Настя Задорожная, Филипп Киркоров, Шэрон Стоун, Игорь Жижикин, Екатерина Климова-Описание: В жизни каждого отца, рано или поздно наступает момент, когда жена улетает на заслуженный отдых, а он остается один на один с собственным ребенком. Казалось бы — ничего сложного! Также подумали Игорь, Артем и Сауна, даже не подозревая, какой «водопад» приключений накроет их с головой.Измученные «прелестями» отцовства, парни встречают своего старого приятеля Святого Валентина. Снимая стресс за бутылочкой виски, ребята в шутку мечтают о том, чтобы их дети поскорее стали взрослыми.А на утро, шокированные папаши понимают — их мечта сбылась и теперь они на собственной шкуре поймут, что значит поговорка: Большие дети — большие проблемы…

Сэмпл-Качество видео: DVDRip
Формат видео: AVI
Видео: 720х400, XviD, 2093 Кбит/с, 25,000 кадров/сек, Бит/Пик: 0.291
Аудио: AC3, 6 ch, 384 Кбит/с |Оригинал|

MediaInfo

Общее
Полное имя : C:\Downaload\Lubov.V.Bolshom.Gorode.2014.O.DVDRip.1400MB.avi
Формат : AVI
Формат/Информация : Audio Video Interleave
Размер файла : 1,37 Гбайт
Продолжительность : 1 ч. 18 м.
Общий поток : 2487 Кбит/сек
Программа кодирования : VirtualDubMod 1.5.10.3 | www.virtualdub-fr.org || (build 2550/release)
Библиотека кодирования : VirtualDubMod build 2550/release
Видео
Идентификатор : 0
Формат : MPEG-4 Visual
Профиль формата : Advanced Simple@L5
Параметр BVOP формата : 2
Параметр QPel формата : Нет
Параметр GMC формата : Без точки перехода
Параметр матрицы формата : Default (MPEG)
Идентификатор кодека : XVID
Идентификатор кодека/Подсказка : XviD
Продолжительность : 1 ч. 18 м.
Битрейт : 2093 Кбит/сек
Ширина : 720 пикселей
Высота : 400 пикселей
Соотношение сторон : 16:9
Частота кадров : 25,000 кадров/сек
Цветовое пространство : YUV
Субдискретизация насыщенности : 4:2:0
Битовая глубина : 8 бит
Тип развёртки : Прогрессивная
Метод сжатия : С потерями
Бит/(Пиксели*Кадры) : 0.291
Размер потока : 1,15 Гбайт (84%)
Аудио
Идентификатор : 1
Формат : AC-3
Формат/Информация : Audio Coding 3
Расширение режима : CM (complete main)
Параметр Endianness формата : Big
Идентификатор кодека : 2000
Продолжительность : 1 ч. 18 м.
Вид битрейта : Постоянный
Битрейт : 384 Кбит/сек
Каналы : 6 каналов
Расположение каналов : Front: L C R, Side: L R, LFE
Частота : 48,0 КГц
Битовая глубина : 16 бит
Метод сжатия : С потерями
Размер потока : 216 Мбайт (15%)
Выравнивание : Разделение по промежуткам
Продолжительность промежутка : 40 мс. (1,00 видеокадр)
Время предзагрузки промежутка : 500 мс.

Скриншоты

Скачать

Скачать торрент!

Как скачивать? · Что такое торрент? · Рейтинг и ограничения

Сайт не распространяет и не хранит электронные версии произведений, а лишь предоставляет доступ к создаваемому пользователями каталогу ссылок на торрент-файлы, которые содержат только списки хеш-сумм

[Профиль] [ЛС]
Показать сообщения:    
Ответить на тему

Текущее время: Сегодня 08:36

Часовой пояс: GMT + 4



Вы не можете начинать темы
Вы не можете отвечать на сообщения
Вы не можете редактировать свои сообщения
Вы не можете удалять свои сообщения
Вы не можете голосовать в опросах
Вы не можете прикреплять файлы к сообщениям
Вы не можете скачивать файлы