Сын за отца / Имя героя / Mangal Pandey (Хармеш Малхотра / Harmesh Malhotra) [1983, Индия, Боевик, драма, криминал, DVDRip] MVO

Ответить на тему
 
Автор Сообщение

user ®

Стаж: 12 лет

Сообщений: 15092

Пост Пост: #1 от 26-Янв-2014 02:55

[Цитировать]

Сын за отца / Имя героя / Mangal Pandey
Страна: Индия
Жанр: Боевик, драма, криминал
Год выпуска: 1983
Продолжительность: 02:17:58
Перевод: Профессиональный (многоголосый закадровый)
Cубтитры: нет
Режиссер: Хармеш Малхотра / Harmesh Malhotra
В ролях: Шатругхан Синха, Парвин Баби, Аджит, Джагдип, Кадер Кхан, Ифтекхар, Фарида Джалал, Маник Ирани, Чандрашекхар, Сатиендра Капур, Раджан Хаксар, Ранджит Суд
Описание: Лал Сингх - честный и неподкупный полицейский. Пытыясь арестовать главаря разбойников, он сам становится жертвой бандита. Свидетелем этого становится сын отважного полицейского Мангал. Жажда мести воспылает в сердце мальчика. Проходят годы...
Доп. информация: Релиз : pca1962 (Спасибо!)
Ничего общего к рассказу об национально-освободительном восстании индийского народа против Британской империи данный фильм не имеет
Сэмпл: http://multi-up.com/944199
Качество видео: DVDRip
Формат видео: AVI
Видео: XviD build 50, 640x480 (1.33:1), 25 fps, 1299 kbps avg
Аудио: MPEG Layer 3, 48 kHz, 2/0 (L,R) ch, 128.00 kbps avg

MediaInfo

General
Complete name : D:\Sin.za.otcha.1983.XviD.DVDRip.pca1962.avi
Format : AVI
Format/Info : Audio Video Interleave
File size : 1.39 GiB
Duration : 2h 17mn
Overall bit rate : 1 438 Kbps
Writing application : VirtualDubMod 1.5.10.2 (build 2540/release)
Writing library : VirtualDubMod build 2540/release
Video
ID : 0
Format : MPEG-4 Visual
Format profile : AdvancedSimple@L5
Format settings, BVOP : Yes
Format settings, QPel : No
Format settings, GMC : No warppoints
Format settings, Matrix : Default (H.263)
Codec ID : XVID
Codec ID/Hint : XviD
Duration : 2h 17mn
Bit rate : 1 300 Kbps
Width : 640 pixels
Height : 480 pixels
Display aspect ratio : 4/3
Frame rate : 25.000 fps
Resolution : 24 bits
Colorimetry : 4:2:0
Scan type : Progressive
Bits/(Pixel*Frame) : 0.169
Stream size : 1.25 GiB (90%)
Writing library : XviD 1.2.1 (UTC 2008-12-04)
Audio
ID : 1
Format : AC-3
Format/Info : Audio Coding 3
Codec ID : 2000
Duration : 2h 17mn
Bit rate mode : Constant
Bit rate : 128 Kbps
Channel(s) : 2 channels
Channel positions : L R
Sampling rate : 48.0 KHz
Stream size : 126 MiB (9%)
Alignment : Split accross interleaves
Interleave, duration : 40 ms (1.00 video frame)
Interleave, preload duration : 500 ms

Скриншоты

Скачать

Скачать торрент! Сын за отца / Имя героя / Mangal Pandey (Хармеш Малхотра / Harmesh Malhotra) [1983, Индия, Боевик, драма, криминал, DVDRip] MVO

Как скачивать? · Что такое торрент? · Рейтинг и ограничения

Сайт не распространяет и не хранит электронные версии произведений, а лишь предоставляет доступ к создаваемому пользователями каталогу ссылок на торрент-файлы, которые содержат только списки хеш-сумм

[Профиль] [ЛС]
Показать сообщения:    
Ответить на тему

Текущее время: Сегодня 14:28

Часовой пояс: GMT + 4



Вы не можете начинать темы
Вы не можете отвечать на сообщения
Вы не можете редактировать свои сообщения
Вы не можете удалять свои сообщения
Вы не можете голосовать в опросах
Вы не можете прикреплять файлы к сообщениям
Вы не можете скачивать файлы