Морозилка / Freezer (Микаэл Саломон / Mikael Salomon) [2014, США, Боевик, триллер, HDRip] VO (den904) + VO (Хихикающий доктор)

Ответить на тему
 
Автор Сообщение

user ®

Стаж: 7 лет 7 месяцев

Сообщений: 20008

Пост Пост: #1 от 26-Янв-2014 02:55

[Цитировать]

Морозилка / Freezer- Год выпуска: 2014
Выпущено: США / Envision Media Arts
Жанр: боевик, триллер
Продолжительность: 01:22:10
Перевод (1): Одноголосый закадровый |den904| по переводу МЕГАПЫХАРЬ
Перевод (2): Одноголосый закадровый |Хихикающий доктор| по переводу МЕГАПЫХАРЬ
Cубтитры: нет-Режиссер:
Микаэл Саломон / Mikael Salomon-В ролях:
Дилан МакДермотт (Robert), Питер Фачинелли (Detective Sam Gurov), Юлия Снигирь (Alisa), Андрей Ивченко (Kiril), Паскаль Петарди (Vadim), Милан Малисич (Stepan), Дэвид МакНалли (Detective Al Dorian), Маркус Парило (Oleg)-Описание:
Роберт Сондерс, обычный механик, потерял сознание на своем дне рождения и очнулся в морозильнике. Появившиеся русские бандиты начинают обвинять его в краже 8 миллионов долларов. Чтоб Роберт быстрее отдал деньги, бандиты начинают пытать его холодом. Температура падает. Страх растет. Перед Робертом встает выбор, замерзнуть от холода или быть убитым русскими бандитами,так как его все равно живым не отпустят. IMDB | КиноПоиск | Сэмпл |-Качество: HDRip [Freezer.2014.1080p.BluRay.x264-ROVERS]
Формат: AVI
Видео: 720x304 (2.37:1), 23.976 fps, XviD build 73 ~2151 kbps avg, 0.41 bit/pixel
Аудио: 48 kHz, AC3 Dolby Digital, 2/0 (L,R) ch, ~192.00 kbps avg (den904)
Аудио: 48 kHz, AC3 Dolby Digital, 2/0 (L,R) ch, ~192.00 kbps avg (Хихикающий доктор)
-

Скриншоты

MediaInfo

General
Complete name                            : D:\Morozilka_2014_HDRip_by_Dalemake.avi
Format                                   : AVI
Format/Info                              : Audio Video Interleave
File size                                : 1.46 GiB
Duration                                 : 1h 22mn
Overall bit rate                         : 2 550 Kbps
Writing application                      : VirtualDubMod 1.5.10.3 | www.virtualdub-fr.org || (build 2550/release)
Writing library                          : VirtualDubMod build 2550/release
Video
ID                                       : 0
Format                                   : MPEG-4 Visual
Format profile                           : Advanced Simple@L5
Format settings, BVOP                    : 1
Format settings, QPel                    : No
Format settings, GMC                     : No warppoints
Format settings, Matrix                  : Custom
Codec ID                                 : XVID
Codec ID/Hint                            : XviD
Duration                                 : 1h 22mn
Bit rate                                 : 2 152 Kbps
Width                                    : 720 pixels
Height                                   : 304 pixels
Display aspect ratio                     : 2.35:1
Frame rate                               : 23.976 fps
Color space                              : YUV
Chroma subsampling                       : 4:2:0
Bit depth                                : 8 bits
Scan type                                : Progressive
Compression mode                         : Lossy
Bits/(Pixel*Frame)                       : 0.410
Stream size                              : 1.24 GiB (84%)
Writing library                          : XviD 73
Audio #1
ID                                       : 1
Format                                   : AC-3
Format/Info                              : Audio Coding 3
Mode extension                           : CM (complete main)
Format settings, Endianness              : Big
Codec ID                                 : 2000
Duration                                 : 1h 22mn
Bit rate mode                            : Constant
Bit rate                                 : 192 Kbps
Channel(s)                               : 2 channels
Channel positions                        : Front: L R
Sampling rate                            : 48.0 KHz
Bit depth                                : 16 bits
Compression mode                         : Lossy
Stream size                              : 113 MiB (8%)
Alignment                                : Split accross interleaves
Interleave, duration                     : 42 ms (1.00 video frame)
Interleave, preload duration             : 500 ms
Audio #2
ID                                       : 2
Format                                   : AC-3
Format/Info                              : Audio Coding 3
Mode extension                           : CM (complete main)
Format settings, Endianness              : Big
Codec ID                                 : 2000
Duration                                 : 1h 22mn
Bit rate mode                            : Constant
Bit rate                                 : 192 Kbps
Channel(s)                               : 2 channels
Channel positions                        : Front: L R
Sampling rate                            : 48.0 KHz
Bit depth                                : 16 bits
Compression mode                         : Lossy
Stream size                              : 113 MiB (8%)
Alignment                                : Split accross interleaves
Interleave, duration                     : 42 ms (1.00 video frame)
Interleave, preload duration             : 500 ms
-
Скачать

Скачать торрент!

Как скачивать? · Что такое торрент? · Рейтинг и ограничения

Сайт не распространяет и не хранит электронные версии произведений, а лишь предоставляет доступ к создаваемому пользователями каталогу ссылок на торрент-файлы, которые содержат только списки хеш-сумм

[Профиль] [ЛС]
Показать сообщения:    
Ответить на тему

Текущее время: Сегодня 18:32

Часовой пояс: GMT + 4



Вы не можете начинать темы
Вы не можете отвечать на сообщения
Вы не можете редактировать свои сообщения
Вы не можете удалять свои сообщения
Вы не можете голосовать в опросах
Вы не можете прикреплять файлы к сообщениям
Вы не можете скачивать файлы