Большая свадьба / The Big Wedding (Джастин Закэм / Justin Zackham) [2013, США, комедия, BDRip 720p] Dub + Original Eng + Sub Eng

Ответить на тему
 
Автор Сообщение

user ®

Стаж: 7 лет 7 месяцев

Сообщений: 20008

Пост Пост: #1 от 25-Янв-2014 23:45

[Цитировать]

Большая свадьба / The Big Wedding- Страна: США
Жанр: комедия
Год выпуска: 2013
Продолжительность: 01:29:32
Перевод: Профессиональный (дублированный)
Cубтитры: английские
Оригинальная аудиодорожка: английский
Режиссер: Джастин Закэм / Justin Zackham
В ролях: Роберт Де Ниро (Don), Дайан Китон (Ellie), Кэтрин Хайгл (Lyla), Сьюзен Сарандон (Bebe), Бен Барнс (Alejandro), Аманда Сайфред (Missy), Тофер Грейс (Jared), Ана Айора (Nuria), Робин Уильямс (Father Moinighan), Патриция Рэй (Madonna), Кристин Эберсоул (Muffin), Дэвид Раш (Barry).
Описание: Свадьба всегда являлась очень радостным и очень хлопотным событием для всех участников торжество. Но что вдвойне сложно справить это веселое торжество, если родители одного из брачующихся разведены и давно состоят в плохих отношениях. Экс-супруги Гриффин хоть уже и пятую часть века не могут даже поговорить нормально, но на свадьбу к любимому Джареду, приемному сыну, Дон и Лайла приезжают с нормальным дружеским видом. Тем более что на торжество заявится и родная ультраконсервативная мать Джареда, которая решит почтить свадьбу, пролетев полмира. Однако как бы родственники не договаривались, все скелеты в шкафу скрыть не удастся. Большая свадьба обернется тем еще конфузами и смешными неприятностями, решать которые придется именно Джареду и его красавице-невесте.
Тип релиза: BDRip 720p
Контейнер: MKV
Видео: 1280x534 (2.40:1), 23.976 fps, 5930 kbps avg, 0.362 bit/pixel
Аудио 1: 48 kHz, DTS, 3/2 (L,C,R,l,r) + LFE ch, 768.00 kbps avg Russian
Аудио 2: 48 kHz, DTS, 3/2 (L,C,R,l,r) + LFE ch, 1509.00 kbps avg English

Скриншоты

Информация

Общее
Формат : Matroska
Версия формата : Version 2
Размер файла : 5,24 Гбайт
Продолжительность : 1 ч. 29 м.
Общий поток : 8374 Кбит/сек
Название фильма : HDCLUB present " The Big Wedding (2013)"
Дата кодирования : UTC 2013-08-12 20:01:41
Программа кодирования : mkvmerge v5.8.0 ('No Sleep / Pillow') built on Sep 2 2012 15:37:04
Библиотека кодирования : libebml v1.2.3 + libmatroska v1.3.0
Видео
Идентификатор : 1
Формат : AVC
Формат/Информация : Advanced Video Codec
Профиль формата : High@L4.1
Параметр CABAC формата : Да
Параметр ReFrames формата : 12 кадров
Идентификатор кодека : V_MPEG4/ISO/AVC
Продолжительность : 1 ч. 29 м.
Битрейт : 5930 Кбит/сек
Ширина : 1280 пикселей
Высота : 534 пикселя
Соотношение сторон : 2,40:1
Режим частоты кадров : Постоянный
Частота кадров : 23,976 кадра/сек
Цветовое пространство : YUV
Субдискретизация насыщенности : 4:2:0
Битовая глубина : 8 бит
Тип развёртки : Прогрессивная
Бит/(Пиксели*Кадры) : 0.362
Размер потока : 3,71 Гбайт (71%)
Библиотека кодирования : x264 core 130 r2273 b3065e6
Настройки программы : cabac=1 / ref=12 / deblock=1:-3:-3 / analyse=0x3:0x133 / me=umh / subme=10 / psy=1 / psy_rd=1.30:0.00 / mixed_ref=1 / me_range=48 / chroma_me=1 / trellis=2 / 8x8dct=1 / cqm=0 / deadzone=21,11 / fast_pskip=0 / chroma_qp_offset=-2 / threads=12 / lookahead_threads=2 / sliced_threads=0 / nr=0 / decimate=0 / interlaced=0 / bluray_compat=0 / constrained_intra=0 / bframes=9 / b_pyramid=2 / b_adapt=2 / b_bias=0 / direct=3 / weightb=1 / open_gop=0 / weightp=2 / keyint=250 / keyint_min=23 / scenecut=40 / intra_refresh=0 / rc=crf / mbtree=0 / crf=15.0 / qcomp=0.60 / qpmin=0 / qpmax=69 / qpstep=4 / ip_ratio=1.30 / pb_ratio=1.30 / aq=1:0.70
Язык : English
Default : Да
Forced : Нет
Аудио #1
Идентификатор : 2
Формат : DTS
Формат/Информация : Digital Theater Systems
Режим : 16
Параметр Endianness формата : Big
Идентификатор кодека : A_DTS
Продолжительность : 1 ч. 29 м.
Вид битрейта : Постоянный
Битрейт : 768 Кбит/сек
Каналы : 6 каналов
Расположение каналов : Front: L C R, Side: L R, LFE
Частота : 48,0 КГц
Битовая глубина : 16 бит
Метод сжатия : С потерями
Размер потока : 492 Мбайт (9%)
Заголовок : DTS 5.1 @ 768 kbps - Dubbed [BD RUS]
Язык : Russian
Default : Да
Forced : Нет
Аудио #2
Идентификатор : 3
Формат : DTS
Формат/Информация : Digital Theater Systems
Режим : 16
Параметр Endianness формата : Big
Идентификатор кодека : A_DTS
Продолжительность : 1 ч. 29 м.
Вид битрейта : Постоянный
Битрейт : 1509 Кбит/сек
Каналы : 6 каналов
Расположение каналов : Front: L C R, Side: L R, LFE
Частота : 48,0 КГц
Битовая глубина : 16 бит
Метод сжатия : С потерями
Размер потока : 967 Мбайт (18%)
Заголовок : DTS 5.1 @ 1509 kbps
Язык : English
Default : Нет
Forced : Нет
Текст
Идентификатор : 4
Формат : UTF-8
Идентификатор кодека : S_TEXT/UTF8
Идентификатор кодека/Информация : UTF-8 Plain Text
Язык : English
Default : Нет
Forced : Нет
Меню
00:00:00.000 : en:00:00:00.000
00:07:27.739 : en:00:07:27.739
00:12:42.887 : en:00:12:42.887
00:20:57.214 : en:00:20:57.214
00:28:32.669 : en:00:28:32.669
00:36:18.468 : en:00:36:18.468
00:43:38.366 : en:00:43:38.366
00:51:07.982 : en:00:51:07.982
00:59:10.464 : en:00:59:10.464
01:08:03.246 : en:01:08:03.246
01:16:01.056 : en:01:16:01.056
01:22:41.999 : en:01:22:41.999

Дополнительно

Сохранены чаптеры как на Blu-Ray
Звук BD RUS
Рип от EbP

Скачать

Скачать торрент!

Как скачивать? · Что такое торрент? · Рейтинг и ограничения

Сайт не распространяет и не хранит электронные версии произведений, а лишь предоставляет доступ к создаваемому пользователями каталогу ссылок на торрент-файлы, которые содержат только списки хеш-сумм

[Профиль] [ЛС]
Показать сообщения:    
Ответить на тему

Текущее время: Сегодня 10:06

Часовой пояс: GMT + 4



Вы не можете начинать темы
Вы не можете отвечать на сообщения
Вы не можете редактировать свои сообщения
Вы не можете удалять свои сообщения
Вы не можете голосовать в опросах
Вы не можете прикреплять файлы к сообщениям
Вы не можете скачивать файлы