Кули убийца / Coolie killer / Sat chut sai ying poon (Terry Tong / Терри Тонг) [1982, Гонконг, триллер, мелодрама, криминал, DVDRip] original + sub rus + sub eng

Ответить на тему
 
Автор Сообщение

user ®

Стаж: 11 лет

Сообщений: 15151

Пост Пост: #1 от 25-Янв-2014 20:35

[Цитировать]

Кули убийца / Coolie killer / Sat chut sai ying poon
Страна: Гонконг
Жанр: триллер, мелодрама, криминал
Год выпуска: 1982
Продолжительность: 01:32:07
Перевод: cубтитры calexico
Cубтитры: русские, английские
Оригинальная аудиодорожка: кантонский
Режиссер: Terry Tong / Терри Тонг
В ролях: Кенг Чиен Чи, Тинь Нэм Чун, Эдди Линь-Чинь Фонг
Описание: У бывшего грузчика из порта (кули) процветающий бизнес по убийству людей. Он все сделал грамотно и теперь ему даже не приходится брать в руки оружие, ведь в штате четыре профессионала, которых он тренировал сам. Убивают они только за границей, так что в Гонконге чувствуют себя в безопасности. Но если ты работаешь по ту сторону закона, расслабляться нельзя. Таинственные некто открыли охоту на героя и его сотрудников. Придется ему снова браться за пистолет.
Классический образец гонконгской Новой Волны - здесь много и со вкусом убивают, бешеный темп, изобретательные съемки, а про любовь рассказывают нежно и с придыханием. Сюжет сложный, разобрался только с третьего раза. Мешают одинаковые азиатские лица и плохо запоминающиеся имена.
Доп. информация: В Гонконге часто делали несколько версий фильма для разных рынков - внутреннего, европейского, тайваньского. И в Coolie Killer есть альтернативная концовка, которая, кстати, мне нравится больше. Кому интересно, ищите так - Ending #1: Coolie Killer (1982).
Качество видео: DVDRip
Формат видео: AVI
Видео: MPEG-4 Visual, 1317 Кбит/сек, 704:368, 23,976 кадра/сек
Аудио: MPEG Audio, 192 Кбит/сек, 2 канала, 48,0 КГц

Сэмпл

СЭМПЛ

MediaInfo

Общее
Полное имя : C:\cinema\orient\смотрено\Coolie Killer (1982)\Coolie.Killer.(1982).avi
Формат : AVI
Формат/Информация : Audio Video Interleave
Размер файла : 999 Мбайт
Продолжительность : 1 ч. 32 м.
Общий поток : 1516 Кбит/сек
Программа кодирования : VirtualDubMod 1.5.4.1 (build 2178/release)
Библиотека кодирования : VirtualDubMod build 2178/release
Видео
Идентификатор : 0
Формат : MPEG-4 Visual
Профиль формата : Advanced Simple@L5
Параметр BVOP формата : 1
Параметр QPel формата : Нет
Параметр GMC формата : Без точки перехода
Параметр матрицы формата : Выборочная
Идентификатор кодека : XVID
Идентификатор кодека/Подсказка : XviD
Продолжительность : 1 ч. 32 м.
Битрейт : 1317 Кбит/сек
Ширина : 704 пикселя
Высота : 368 пикселей
Соотношение сторон : 1,913
Частота кадров : 23,976 кадра/сек
Цветовое пространство : YUV
Субдискретизация насыщенности : 4:2:0
Битовая глубина : 8 бит
Тип развёртки : Прогрессивная
Метод сжатия : С потерями
Бит/(Пиксели*Кадры) : 0.212
Размер потока : 868 Мбайт (87%)
Библиотека кодирования : XviD 1.2.1 (UTC 2008-12-04)
Аудио
Идентификатор : 1
Формат : MPEG Audio
Версия формата : Version 1
Профиль формата : Layer 3
Режим : Joint stereo
Идентификатор кодека : 55
Идентификатор кодека/Подсказка : MP3
Продолжительность : 1 ч. 32 м.
Вид битрейта : Постоянный
Битрейт : 192 Кбит/сек
Каналы : 2 канала
Частота : 48,0 КГц
Метод сжатия : С потерями
Размер потока : 127 Мбайт (13%)
Выравнивание : Соединение по промежуткам
Продолжительность промежутка : 83 мс. (2,00 видеокадра)
Время предзагрузки промежутка : 504 мс.
Библиотека кодирования : LAME3.98r
Настройки программы : -m j -V 4 -q 2 -lowpass 18.6 -b 192

Пример субтитров

33
00:08:23,815 --> 00:08:25,544
Привет, это я
34
00:08:31,789 --> 00:08:32,983
Хорошо, буду поздно
35
00:08:35,293 --> 00:08:36,817
Да ты все выпил, ничего не осталось
36
00:08:37,161 --> 00:08:37,855
Ты не умеешь пить
37
00:08:42,367 --> 00:08:42,856
Большой брат
38
00:09:01,686 --> 00:09:04,018
Я думаю тебе нужно больше тренироваться
39
00:09:06,524 --> 00:09:09,459
Сиуа, почему ты убил ту японскую женщину?
40
00:09:14,432 --> 00:09:15,899
Мы не убиваем невинных людей
41
00:09:19,103 --> 00:09:22,732
Мы профессионалы и должны быть безупречны
42
00:09:23,608 --> 00:09:26,543
Да, я понимаю, но я волновался что она запомнила меня
43
00:09:28,446 --> 00:09:30,175
У меня запоминающееся лицо

Скриншоты


Скачать

Скачать торрент! Кули убийца / Coolie killer / Sat chut sai ying poon (Terry Tong / Терри Тонг) [1982, Гонконг, триллер, мелодрама, криминал, DVDRip] original + sub rus + sub eng

Как скачивать? · Что такое торрент? · Рейтинг и ограничения

Сайт не распространяет и не хранит электронные версии произведений, а лишь предоставляет доступ к создаваемому пользователями каталогу ссылок на торрент-файлы, которые содержат только списки хеш-сумм

[Профиль] [ЛС]
Показать сообщения:    
Ответить на тему

Текущее время: Сегодня 12:49

Часовой пояс: GMT + 4



Вы не можете начинать темы
Вы не можете отвечать на сообщения
Вы не можете редактировать свои сообщения
Вы не можете удалять свои сообщения
Вы не можете голосовать в опросах
Вы не можете прикреплять файлы к сообщениям
Вы не можете скачивать файлы