Миллион йен и миллион проблем / Hyakuman-en to nigamushi onna / One Million Yen and the Nigamushi Woman (Юки Танада / Yuki Tanada) [2008, Япония, драма, мелодрама, DVDRip] Sub Rus

Ответить на тему
 
Автор Сообщение

user ®

Стаж: 11 лет

Сообщений: 15151

Пост Пост: #1 от 25-Янв-2014 20:35

[Цитировать]

Миллион йен и миллион проблем / Hyakuman-en to nigamushi onna / One Million Yen and the Nigamushi Woman
Страна: Япония
Жанр: драма, мелодрама
Год выпуска: 2008
Продолжительность: 2:00:29
Перевод: Субтитры
Cубтитры: русские
Оригинальная аудиодорожка: Японский
Режиссер: Юки Танада / Yuki Tanada
В ролях: Аои Ю, Мираи Морияма, Пьер Таки, Теруносуке Такезаи, Рюсэй Сайто, Сумие Сасаки, Норико Егучи, Ками Хираива, Кеисуке Хорибе, Таро Ишида
Описание: Судзуко всего двадцать один год, а она уже успела хлебнуть горя и разочароваться в людях. Она отправляется в путешествие, дав себе зарок — оставаться в каждом городе лишь до тех пор, пока не накопит миллион иен. Судьба забрасывает ее на приморский курорт, на персиковую плантацию в горах. Повсюду она избегает близких отношений и, достигнув своей цели, отправляется к новому назначению. Устроившись на работу в цветочный магазин в пригороде Токио, она сходится с подрабатывающим там студентом Накадзимой. Это любовь с первого взгляда, но Судзуко не готова отказаться от своего решения — уехать, как только она заработает миллион иен…
Сэмпл: http://multi-up.com/943961
Качество видео: DVDRip
Формат видео: AVI
Видео: XviD, 640х336, 1.905, 23.976 fps, 1 167 Kbps
Аудио: AC-3, 48.0 KHz, 448 Kbps, 6 channels
Формат субтитров: softsub (SRT), отдельным файлом

Примеры субтитров

3
00:01:06,120 --> 00:01:10,520
#325, Вы свободны.
4
00:01:31,440 --> 00:01:33,880
Никогда больше не возвращайтесь.
5
00:01:35,150 --> 00:01:37,310
Простите.
6
00:01:53,840 --> 00:01:55,770
Свобода...
7
00:02:23,390 --> 00:02:29,590
[ One Million Yen and the Nigamusi Woman ]
[ Миллион йен и миллион проблем ]
8
00:02:31,390 --> 00:02:37,590
[ Миллион йен прибл. $ 10,000 ]
9
00:02:39,330 --> 00:02:40,570
Это все?
10
00:02:40,670 --> 00:02:42,880
OK, я возьму меню.
11
00:02:43,380 --> 00:02:44,290
Извините.
12
00:02:54,230 --> 00:02:55,890
Около 20,000 йен.
13
00:02:56,230 --> 00:02:57,170
Правда?
14
00:02:57,270 --> 00:02:59,220
Сузуко, ты снимаешь квартиру?
15
00:02:59,320 --> 00:03:00,630
Они такие строгие?
16
00:03:00,740 --> 00:03:01,550
Ну,
17
00:03:01,650 --> 00:03:04,260
они послали меня в колледж, даже взяли кредит,
18
00:03:04,360 --> 00:03:05,980
а я работаю по полдня.
19
00:03:06,870 --> 00:03:09,820
Неудобно жить на шее у родителей.
20
00:03:10,240 --> 00:03:12,700
Да, я знаю.
21
00:03:12,830 --> 00:03:14,530
Нет, нет.
22
00:03:14,710 --> 00:03:17,120
И потом, ты не думала жить отдельно?
23
00:03:17,340 --> 00:03:19,330
А, я...
24
00:03:19,710 --> 00:03:23,050
Трудно прожить с такой зарплатой
25
00:03:24,180 --> 00:03:25,880
Это правда.
26
00:03:26,970 --> 00:03:29,750
Почему бы нам не снимать квартиру вместе?
27
00:03:30,260 --> 00:03:32,770
Мы можем поделить стоимость.
28
00:03:50,950 --> 00:03:51,690
Так дешевле.
29
00:03:51,790 --> 00:03:52,480
Ты права!

MediaInfo

Format : AVI
Format/Info : Audio Video Interleave
File size : 1.37 GiB
Duration : 2h 0mn
Overall bit rate : 1 624 Kbps
Writing application : VirtualDubMod 1.5.10.2 (build 2542/release)
Writing library : VirtualDubMod build 2542/release
Video
ID : 0
Format : MPEG-4 Visual
Format profile : Advanced Simple@L5
Format settings, BVOP : 2
Format settings, QPel : No
Format settings, GMC : No warppoints
Format settings, Matrix : Default (H.263)
Muxing mode : Packed bitstream
Codec ID : XVID
Codec ID/Hint : XviD
Duration : 2h 0mn
Bit rate : 1 167 Kbps
Width : 640 pixels
Height : 336 pixels
Display aspect ratio : 1.905
Frame rate : 23.976 fps
Color space : YUV
Chroma subsampling : 4:2:0
Bit depth : 8 bits
Scan type : Progressive
Compression mode : Lossy
Bits/(Pixel*Frame) : 0.226
Stream size : 1 006 MiB (72%)
Writing library : XviD 1.1.2 (UTC 2006-11-01)
Audio
ID : 1
Format : AC-3
Format/Info : Audio Coding 3
Mode extension : CM (complete main)
Format settings, Endianness : Big
Codec ID : 2000
Duration : 2h 0mn
Bit rate mode : Constant
Bit rate : 448 Kbps
Channel(s) : 6 channels
Channel positions : Front: L C R, Side: L R, LFE
Sampling rate : 48.0 KHz
Bit depth : 16 bits
Compression mode : Lossy
Stream size : 386 MiB (28%)
Alignment : Split accross interleaves
Interleave, duration : 42 ms (1.00 video frame)
Interleave, preload duration : 500 ms

Скриншот c названием фильма

Скачать

Скачать торрент! Миллион йен и миллион проблем / Hyakuman-en to nigamushi onna / One Million Yen and the Nigamushi Woman (Юки Танада / Yuki Tanada) [2008, Япония, драма, мелодрама, DVDRip] Sub Rus

Как скачивать? · Что такое торрент? · Рейтинг и ограничения

Сайт не распространяет и не хранит электронные версии произведений, а лишь предоставляет доступ к создаваемому пользователями каталогу ссылок на торрент-файлы, которые содержат только списки хеш-сумм

[Профиль] [ЛС]
Показать сообщения:    
Ответить на тему

Текущее время: Сегодня 17:02

Часовой пояс: GMT + 4



Вы не можете начинать темы
Вы не можете отвечать на сообщения
Вы не можете редактировать свои сообщения
Вы не можете удалять свои сообщения
Вы не можете голосовать в опросах
Вы не можете прикреплять файлы к сообщениям
Вы не можете скачивать файлы